Welcome Guest ( Log In | Register )

> Beyond Redemption - Christening [demo] (1993), Death Metal
post Nov 17 2014, 16:19:12
Post #1

Serial Uploader
Group Icon
Group: V.I.P
Posts: 32,728
Releases: 31026
From: Lithuania
On Forums: 10 years 1 week
Thanks: 355676 time(s)
Lithuania


(IMG:https://metalarea.org/images/audiocovers/2014_Nov/acov_tid234022_thumb.jpg)

*Artist: Beyond Redemption
*Album: Christening [demo]
*Year: 1993
*Genre: Death Metal
*Country: Italy (IMG:https://metalarea.org/forum/style_images/flags/Italy.png)
*Format: mp3@CBR320kbps
*Size: 37MB

Tracklist:
01. Intro 00:50
02. Parable Of The Shade 04:04
03. Uproar Of A Blooddrop 01:13
04. Uneternal Light 03:27
05. Christening 01:47
06. Damned Dance Of Procreation/ Isolated 06:26
******************************
Total playing time: 17:47

Technical info
(IMG:https://metalarea.org/images/spectrogram/2014_Nov/463011fff0ccac24d02c2479a085cc6e.png)
Input File: 02. Parable Of The Shade.mp3
Channels : 2
Sample Rate : 44100
Precision : 16-bit
Duration : 00:04:03.96 = 10758636 samples = 18297 CDDA sectors
File Size : 9.76M
Bit Rate : 320k
Sample Encoding: MPEG audio (layer I, II or III)
Comments :
Title=Parable Of The Shade
Artist=Beyond Redemption
Album=Christening
Tracknumber=02
Year=1993
Genre=Death Metal



Register


Go to the top of the page
  Insert nick Quick quote
+Quote Post
 
Start new topic
Replies (1 - 2)
post Feb 14 2018, 18:52:39
Post #2

Три Литра
***
Group: Завсегдатай
Posts: 237
Releases: 0
On Forums: 7 years 4 months
Thanks: 13 time(s)
Portugal


Can someone reuload in 320?
Go to the top of the page
  Insert nick Quick quote
+Quote Post
post Feb 17 2018, 10:53:30
Post #3

Going home. Flying high.
**************
Group: Металариец
Posts: 12,200
Releases: 0
From: The Land of Shadows
On Forums: 11 years 10 months
Thanks: 16787 time(s)
Russian Federation


from the web, same bitrate
Register


Thanks:
Go to the top of the page
  Insert nick Quick quote
+Quote Post

Reply to this topicStart new topic
2 User(s) are reading this topic (2 Guests and 0 Anonymous Users)
0 Members:

 



- Lo-Fi Version Support form
Copyrights and abuse reports form
Time is now: 21st June 2018 - 20:54:05