Welcome Guest ( Log In | Register )

> Fall To November Sky... - A Little Sounds For An Empty World (2014), Post-Black Metal/Shoegaze (D6)
post Nov 21 2014, 12:07:36
Post #1

Serial Uploader
Group Icon
Group: V.I.P
Posts: 33,290
Releases: 31565
From: Lithuania
On Forums: 10 years 5 months
Thanks: 360608 time(s)
Lithuania


(IMG:https://metalarea.org/images/audiocovers/2014_Nov/acov_tid234301_thumb.jpg)

*Artist: Fall To November Sky...
*Album: A Little Sounds For An Empty World
*Year: 2014
*Genre: Post-Black Metal/Shoegaze
*Country: Russian Federation (IMG:https://metalarea.org/forum/style_images/flags/Russian%20Federation.png)
*Format: mp3@CBR320kbps
*Size: 106MB

Tracklist:
01. No Hope To Break The Silence 04:20
02. I'm A Tired Emptiness 08:05
03. In The Lonely Universe 08:32
04. Cold Flowers For Sad Girl 09:26
05. Night Road 05:14
06. The Fading Aura Of Forgotten Youth 07:48
07. City Of Monotony Years 02:07
******************************
Total playing time: 45:32

(IMG:https://metalarea.org/images/myspace.png)



(IMG:https://metalarea.org/images/youtube.png)

Technical info
(IMG:https://metalarea.org/images/spectrogram/2014_Nov/dbea17daf9b30c8617aa250b8674e745.png)
Input File: 06. The Fading Aura of Forgotten Youth.mp3
Channels : 2
Sample Rate : 44100
Precision : 16-bit
Duration : 00:07:48.31 = 20652647 samples = 35123.5 CDDA sectors
File Size : 18.9M
Bit Rate : 323k
Sample Encoding: MPEG audio (layer I, II or III)
Comments :
Title=The Fading Aura of Forgotten Youth
Artist=Fall to November Sky...
Album=a little sounds for an empty world
Tracknumber=6
Year=2014



Register


Go to the top of the page
  Insert nick Quick quote
+Quote Post
 
Start new topic
Replies (1 - 3)
post Jan 29 2015, 14:41:00
Post #2

Правь статус, ####!111
**************
Group: Металариец
Posts: 3,340
Releases: 9
From: Москва и МО
On Forums: 12 years 4 months
Thanks: 818 time(s)
Russian Federation


Хорошо, но в целом одноразово.
Go to the top of the page
  Insert nick Quick quote
+Quote Post
post Mar 4 2017, 20:47:43
Post #3

Правь статус, ####!111
**************
Group: Металариец
Posts: 6,615
Releases: 0
From: Москва
On Forums: 9 years 3 months
Thanks: 11707 time(s)
Russian Federation


Register
320


Thanks:
Go to the top of the page
  Insert nick Quick quote
+Quote Post
post Nov 9 2018, 08:21:15
Post #4

Ich bin die Trauer menschlich, kommen Sie zu mir und ich werde Ihnen vergelten
**************
Group: Металариец
Posts: 3,771
Releases: 692
From: Koenigsberg
On Forums: 10 years 10 months
Thanks: 9765 time(s)
Russian Federation


Register

Go to the top of the page
  Insert nick Quick quote
+Quote Post

Reply to this topicStart new topic
1 User(s) are reading this topic (1 Guests and 0 Anonymous Users)
0 Members:

 



- Lo-Fi Version Support form
Copyrights and abuse reports form
Time is now: 17th November 2018 - 23:14:15