Welcome Guest ( Log In | Register )

> Leichenzug - Die Flammende Rückkehr... (2013), Black Metal
post Nov 28 2014, 17:05:05
Post #1

Serial Uploader
Group Icon
Group: V.I.P
Posts: 38,972
Releases: 37108
From: Lithuania
On Forums: 14 years 3 months
Thanks: 463716 time(s)
Lithuania


(IMG:https://metalarea.org/images/audiocovers/2014_Nov/acov_tid234729_thumb.jpg)

*Artist: Leichenzug
*Album: Die Flammende Rückkehr...
*Year: 2013
*Genre: Black Metal
*Country: Germany (IMG:https://metalarea.org/forum/style_images/flags/Germany.png)
*Format: mp3@VBR272kbps
*Size: 74MB

Tracklist:
01. Sturm Über Jehovas Saal 03:57
02. Eisiges Herz 02:30
03. Das Tor Der Finsternis 06:13
04. Tod In Der Kammer 03:43
05. Einst 06:11
06. The Blank Cross 02:50
07. W.N.W. 07:01
08. Sehet Den Falken Fliegen (Темнозорь Cover) 04:47
******************************
Total playing time: 37:12

(IMG:https://metalarea.org/images/myspace.png)
(IMG:https://metalarea.org/images/youtube.png)

Extended info
(IMG:http://metalarea.org/images/spectrogram/2014_Nov/75da5df0e6ce22b213b6feb6372cac0a.png)
Input File: 03. Das Tor Der Finsternis.mp3
Channels : 2
Sample Rate : 44100
Precision : 16-bit
Duration : 00:06:13.00 = 16449388 samples = 27975.1 CDDA sectors
File Size : 13.4M
Bit Rate : 287k
Sample Encoding: MPEG audio (layer I, II or III)
Comments :
Title=Das Tor Der Finsternis
Artist=Leichenzug
Album=Die Flammende RГјckkehr...
Tracknumber=3
Year=2013
Genre=NSBM


Register


Go to the top of the page
  Insert nick Quick quote
+Quote Post
 
Start new topic
Replies (1 - 9)
post Jul 27 2017, 13:21:51
Post #2

Четыре Литра
****
Group: Металариец
Posts: 340
Releases: 5
From: Самара
On Forums: 14 years 4 weeks
Thanks: 321 time(s)
Russian Federation


320? (IMG:style_emoticons/default/pray.gif)
Go to the top of the page
  Insert nick Quick quote
+Quote Post
post Sep 21 2017, 09:12:43
Post #3

I love Sushi
*******
Group: Металариец
Posts: 734
Releases: 0
From: Vienna
On Forums: 13 years 2 months
Thanks: 199 time(s)
Austria


reupload plz? :D
Go to the top of the page
  Insert nick Quick quote
+Quote Post
post Sep 21 2017, 10:10:13
Post #4

Going home. Flying high.
**************
Group: Металариец
Posts: 13,606
Releases: 0
From: The Land of Shadows
On Forums: 16 years 1 month
Thanks: 29800 time(s)
Russian Federation


from the web (VBR)
Register


Go to the top of the page
  Insert nick Quick quote
+Quote Post
post Sep 27 2018, 20:05:23
Post #5

Два Литра
**
Group: Завсегдатай
Posts: 175
Releases: 0
On Forums: 4 years 5 months
Thanks: 15 time(s)
Unknown


320kbps anyone?
Go to the top of the page
  Insert nick Quick quote
+Quote Post
post Sep 28 2018, 06:53:30
Post #6

Шесть Литров
******
Group: Металариец
Posts: 518
Releases: 0
On Forums: 14 years 3 months
Thanks: 1019 time(s)
Russian Federation


320kb/s
Register


Thanks:
(1) Lanceatum,
Go to the top of the page
  Insert nick Quick quote
+Quote Post
post Dec 30 2018, 15:55:26
Post #7

Четыре Литра
****
Group: Металариец
Posts: 340
Releases: 5
From: Самара
On Forums: 14 years 4 weeks
Thanks: 321 time(s)
Russian Federation


ЦИТАТА(gorim @ Sep 28 2018, 09:53:30) *
320kb/s


перезалей, пожалуйста! По ссылке файл удалённый (IMG:style_emoticons/default/pray.gif)
Go to the top of the page
  Insert nick Quick quote
+Quote Post
post Jan 6 2019, 06:46:26
Post #8

Правь статус, ####!111
**************
Group: Металариец
Posts: 51,778
Releases: 949
On Forums: 13 years 4 months
Thanks: 48457 time(s)
Russian Federation


Register


Thanks:
(1) AlexSmith,
Go to the top of the page
  Insert nick Quick quote
+Quote Post
post Sep 17 2021, 17:50:43
Post #9

Два Литра
**
Group: Завсегдатай
Posts: 151
Releases: 41
From: antarctica
On Forums: 12 years 3 weeks
Thanks: 861 time(s)
Unknown


reup please
Go to the top of the page
  Insert nick Quick quote
+Quote Post
post Sep 15 2022, 16:48:17
Post #10

Три Литра
***
Group: Завсегдатай
Posts: 220
Releases: 0
On Forums: 3 years 1 week
Thanks: 25 time(s)
United States


Register
Go to the top of the page
  Insert nick Quick quote
+Quote Post

Reply to this topicStart new topic
1 User(s) are reading this topic (1 Guests and 0 Anonymous Users)
0 Members:

 



- Lo-Fi Version Support form
Copyrights and abuse reports form
Time is now: 3rd October 2022 - 03:21:45