Welcome Guest ( Log In | Register )

> 

Здесь релизы с живыми прямыми ссылками на lossless

> Lebensnacht & Agael - Apathologie [split] (2012), Black Metal/Ambient | Ambient Black Metal/Dark Ambient
post Dec 16 2014, 18:50:57
Post #1

Правь статус, ####!111
**************
Group: Металариец
Posts: 4,281
Releases: 1191
From: Brazil
On Forums: 8 years 1 month
Thanks: 44201 time(s)
Brazil


(IMG:http://metalarea.org/images/audiocovers/2014_Dec/acov_tid235771_thumb.jpg)

*Artist: Lebensnacht & Agael
*Album: Apathologie [split]
*Year: 2012
*Genre: Black Metal/Ambient | Ambient Black Metal/Dark Ambient
*Country: Germany (IMG:http://metalarea.org/forum/style_images/flags/Germany.png) | Germany (IMG:http://metalarea.org/forum/style_images/flags/Germany.png)
*Format: mp3@CBR320kbps
*Size: 108MB

Tracklist:
Lebensnacht:
01. Geboren 03:34
02. Im Käfig 07:11
03. Lebensnacht 04:27
04. Dem Ende Nah 08:25
Agael:
05. Offenbarung 01:55
06. Vom Nichtsein 06:06
07. Remorphose 07:42
08. Die letzte Geburt 04:13
******************************
Total playing time: 43:33

Technical info
(IMG:http://metalarea.org/images/spectrogram/2014_Dec/b5964c3f6741841f6867710048177889.png)
Input File: 07 - Agael - Remorphose.mp3
Channels : 2
Sample Rate : 44100
Precision : 16-bit
Duration : 00:07:42.07 = 20377331 samples = 34655.3 CDDA sectors
File Size : 18.7M
Bit Rate : 323k
Sample Encoding: MPEG audio (layer I, II or III)
Comments :
Title=Remorphose
Artist=Agael
Album=Apathologie
Tracknumber=7
Year=2012



Register


Go to the top of the page
  Insert nick Quick quote
+Quote Post
 
Start new topic
Replies (1 - 1)
post Apr 26 2019, 11:01:23
Post #2


Group Icon
Group: S-moderation team
Posts: 14,795
Releases: 1440
From: Zagreb
On Forums: 9 years 1 month
Thanks: 64722 time(s)
Croatia


Register
Go to the top of the page
  Insert nick Quick quote
+Quote Post

Reply to this topicStart new topic
1 User(s) are reading this topic (1 Guests and 0 Anonymous Users)
0 Members:

 



- Lo-Fi Version Support form
Copyrights and abuse reports form
Time is now: 29th March 2020 - 23:25:17