Welcome Guest ( Log In | Register )

> Eternal Mystery & Insomnia Isterica - Eternal Mystery/Insomnia Isterica [split] (2008), Death Metal/Grindcore | Grindcore (D7)
post Dec 17 2014, 08:37:46
Post #1

Правь статус, ####!111
**************
Group: Металариец
Posts: 6,563
Releases: 6039
From: Lithuania
On Forums: 15 years 3 months
Thanks: 46395 time(s)
Lithuania


(IMG:https://metalarea.org/images/audiocovers/2014_Dec/acov_tid235799_thumb.jpg)

*Artist: Eternal Mystery & Insomnia Isterica
*Album: Eternal Mystery/Insomnia Isterica [split]
*Year: 2008
*Genre: Death Metal/Grindcore | Grindcore
*Country: United States (IMG:https://metalarea.org/forum/style_images/flags/United%20States.png) | Switzerland (IMG:https://metalarea.org/forum/style_images/flags/Switzerland.png)
*Format: mp3@CBR320kbps
*Size: 72MB

Tracklist:
Eternal Mystery:
1. Feasting on Ignorance 02:16
2. Complete and Total Chaos 00:31
3. Politically Incorrect 00:22
4. Is Abuse a Joke? 03:11
5. National Crisis 00:52
6. The Wages of Sin Is... 00:07
7. The Beast 01:56
8. Rewarding the Sloth 00:40
9. Stand Your Ground 00:31
10. Cheap Cliches 01:08
11. Fraud 01:28
12. Faithless Belief (re-recorded) 02:31
Insomnia Isterica:
13. Catering of Human Flesh 03:33
14. Alla Ricerca Dell'accesso Per L'ascesso 02:01
15. Nervi 02:32
16. Il Meglio Che Date Di Voi: Niente 01:26
17. Tossico 02:44
18. Mauro Pons Is Rock'n'Roll 02:20
19. Griller (Patareni cover) 01:29
******************************
Total playing time: 31:38

(IMG:https://metalarea.org/images/myspace.png)
(IMG:https://metalarea.org/images/myspace.png)

Technical info
(IMG:https://metalarea.org/images/spectrogram/2014_Dec/5975f28221bc159d3028abe23494fb86.png)
Input File: 03. Eternal Mystery - Politically Incorrect.mp3
Channels : 2
Sample Rate : 44100
Precision : 16-bit
Duration : 00:00:21.52 = 949032 samples = 1614 CDDA sectors
File Size : 869k
Bit Rate : 323k
Sample Encoding: MPEG audio (layer I, II or III)
Comments :
Title=Politically Incorrect
Artist=Eternal Mystery
Album=Eternal Mystery / Insomnia Isterica (Split)
Tracknumber=03/19
Year=2008
Genre=9



Register


Go to the top of the page
  Insert nick Quick quote
+Quote Post
 
Start new topic
Replies (1 - 1)
post Mar 27 2015, 16:13:04
Post #2

Split Backup Copy
**************
Group: Металариец
Posts: 5,392
Releases: 243
From: с. Мизоново, Ишимский Район, Тюменская область
On Forums: 14 years 1 month
Thanks: 3843 time(s)
Russian Federation


Register


Thanks:
Go to the top of the page
  Insert nick Quick quote
+Quote Post

Reply to this topicStart new topic
1 User(s) are reading this topic (1 Guests and 0 Anonymous Users)
0 Members:

 



- Lo-Fi Version Support form
Copyrights and abuse reports form
Time is now: 21st January 2022 - 17:30:35