Welcome Guest ( Log In | Register )

> Vulture - Catalepsia [ep] (2014), Thrash/Death Metal (D)
post Dec 26 2014, 21:56:03
Post #1

Правь статус, ####!111
**************
Group: Металариец
Posts: 14,236
Releases: 9883
From: Г.Харьков
On Forums: 6 years 4 months
Thanks: 162295 time(s)
Unknown


(IMG:http://metalarea.org/images/audiocovers/2014_Dec/acov_tid236285_thumb.jpg)

*Artist: Vulture
*Album: Catalepsia [ep]
*Year: 2014
*Genre: Thrash/Death Metal
*Country: Peru (IMG:http://metalarea.org/forum/style_images/flags/Peru.png)
*Format: mp3@CBR320kbps
*Size: 47MB

Tracklist:
1. Intro 00:46
2. Testigo del Horror 04:19
3. Catalepsia 03:46
4. Resistencia 02:45
5. Inexistente 04:02
6. Cáncer 04:08
******************************
Total playing time: 19:46


(IMG:http://metalarea.org/images/youtube.png)

Technical info
(IMG:http://metalarea.org/images/spectrogram/2014_Dec/a7a6c758070b6eb7b959fc65766494d0.png)
Input File: VULTURE - ВЁCATALEPSIAВЁ - 02 Testigo del Horror.mp3
Channels : 2
Sample Rate : 44100
Precision : 16-bit
Duration : 00:04:19.66 = 11450786 samples = 19474.1 CDDA sectors
File Size : 10.5M
Bit Rate : 323k
Sample Encoding: MPEG audio (layer I, II or III)
Comments :
Title=Testigo del Horror
Artist=VULTURE
Album=ВЁCATALEPSIAВЁ
Tracknumber=2
Year=2014



Register


Go to the top of the page
  Insert nick Quick quote
+Quote Post
 
Start new topic
Replies (1 - 4)
post Dec 27 2014, 19:53:31
Post #2

Group: Подсевший
Posts: 13
Releases: 0
On Forums: 4 years 2 weeks
Thanks: 2 time(s)
Russian Federation


Замечательный альбом. Несмотря на эспаньол слушается на одном дыхании. Претензия роста в "испанский Arch Enemy".
Проверено, одобрено минздравом. Рекомендовано к прослушиванию.


Thanks:
Go to the top of the page
  Insert nick Quick quote
+Quote Post
post Jan 27 2015, 06:39:28
Post #3

Ъ
**************
Group: Металариец
Posts: 9,151
Releases: 9
On Forums: 9 years 8 months
Thanks: 1747 time(s)
Sweden


По музыке без притензий, играют хорошо напористо, гитара выдает местами неплохие мелодии, но вот качество записи хреновое, а вокал вообще так самое слабое звено и сам гроул и испанский.
Go to the top of the page
  Insert nick Quick quote
+Quote Post
post Oct 23 2016, 00:28:05
Post #4

_ - = # Thrashogolic # = - _ ... а давайте поржём все вместе
**************
Group: Металариец
Posts: 20,954
Releases: 4444
From: 404
On Forums: 8 years 3 months
Thanks: 27132 time(s)
Ukraine


early them Vulture - Inexistente [demo] (2012)
Go to the top of the page
  Insert nick Quick quote
+Quote Post
post Nov 14 2017, 21:27:11
Post #5

Правь статус, ####!111
**************
Group: Металариец
Posts: 2,066
Releases: 0
On Forums: 3 years 4 months
Thanks: 1903 time(s)
Russian Federation


ЦИТАТА(Genuine Thrashiac @ Oct 23 2016, 04:28:05) *

New
Vulture - Transiciуn (2017)

Мож кто зальёт (IMG:style_emoticons/default/smile1.gif)
Go to the top of the page
  Insert nick Quick quote
+Quote Post

Reply to this topicStart new topic
1 User(s) are reading this topic (1 Guests and 0 Anonymous Users)
0 Members:

 



- Lo-Fi Version Support form
Copyrights and abuse reports form
Time is now: 19th September 2018 - 11:34:18