Welcome Guest ( Log In | Register )

 
Reply to this topicStart new topic
> Mindscar - Thornz [ep] (2012), Melodic Black/Death Metal
post Jan 8 2015, 12:40:30
Post #1

Serial Uploader
Group Icon
Group: V.I.P
Posts: 37,011
Releases: 35193
From: Lithuania
On Forums: 11 years 8 months
Thanks: 414460 time(s)
Lithuania


(IMG:https://metalarea.org/images/audiocovers/2015_Jan/acov_tid237162_thumb.jpg)

*Artist: Mindscar
*Album: Thornz [ep]
*Year: 2012
*Genre: Melodic Black/Death Metal
*Country: United States (IMG:https://metalarea.org/forum/style_images/flags/United%20States.png)
*Format: mp3@CBR320kbps
*Size: 23MB

Tracklist:
01. Thornz Ov Ill Lechery 05:01
02. Blind Masses (Satanized!) 04:22
******************************
Total playing time: 9:23




Technical info
(IMG:https://metalarea.org/images/spectrogram/2015_Jan/9ad06ac53935dad758ab118bdd591545.png)
Input File: 02. Blind Masses.mp3
Channels : 2
Sample Rate : 44100
Precision : 16-bit
Duration : 00:04:22.19 = 11562535 samples = 19664.2 CDDA sectors
File Size : 10.9M
Bit Rate : 332k
Sample Encoding: MPEG audio (layer I, II or III)
Comments :
Title=Blind Masses
Artist=MINDSCAR
Album=Thornz EP
Tracknumber=2
Year=2012



Register


Go to the top of the page
  Insert nick Quick quote
+Quote Post

Reply to this topicStart new topic
1 User(s) are reading this topic (1 Guests and 0 Anonymous Users)
0 Members:

 



- Lo-Fi Version Support form
Copyrights and abuse reports form
Time is now: 20th February 2020 - 19:22:21