Welcome Guest ( Log In | Register )

 
Reply to this topicStart new topic
> Svneatr - Serpents & Storms [ep] (2015), Black Metal
post Jan 8 2015, 12:55:03
Post #1

Serial Uploader
Group Icon
Group: V.I.P
Posts: 37,112
Releases: 35296
From: Lithuania
On Forums: 11 years 9 months
Thanks: 418126 time(s)
Lithuania


(IMG:https://metalarea.org/images/audiocovers/2015_Jan/acov_tid237163_thumb.jpg)

*Artist: Svneatr
*Album: Serpents & Storms [ep]
*Year: 2015
*Genre: Black Metal
*Country: Canada (IMG:https://metalarea.org/forum/style_images/flags/Canada.png)
*Format: mp3@CBR320kbps
*Size: 51MB

Tracklist:
01. Kingdom Falls 06:37
02. Crimson Star 04:06
03. Walk The Fires 05:26
04. Trance 05:29
******************************
Total playing time: 21:38



(IMG:https://metalarea.org/images/youtube.png)

Technical info
(IMG:https://metalarea.org/images/spectrogram/2015_Jan/ead46af3f1687ddb7d84a71dafa47575.png)
Input File: 02. Crimson Star.mp3
Channels : 2
Sample Rate : 44100
Precision : 16-bit
Duration : 00:04:06.46 = 10868974 samples = 18484.6 CDDA sectors
File Size : 10.1M
Bit Rate : 328k
Sample Encoding: MPEG audio (layer I, II or III)
Comments :
Title=Crimson Star
Artist=SVNEATR
Album=Serpents & Storms
Tracknumber=2
Year=2015



Register


Go to the top of the page
  Insert nick Quick quote
+Quote Post

Reply to this topicStart new topic
1 User(s) are reading this topic (1 Guests and 0 Anonymous Users)
0 Members:

 



- Lo-Fi Version Support form
Copyrights and abuse reports form
Time is now: 3rd April 2020 - 04:44:48