Welcome Guest ( Log In | Register )

> Skaltros - Dreams Of The Hypothermic Mind (2010), Black Metal/Ambient
post Jan 8 2015, 17:32:37
Post #1

Serial Uploader
Group Icon
Group: V.I.P
Posts: 33,126
Releases: 31411
From: Lithuania
On Forums: 10 years 4 months
Thanks: 359210 time(s)
Lithuania


(IMG:https://metalarea.org/images/audiocovers/2015_Jan/acov_tid237187_thumb.jpg)

*Artist: Skaltros
*Album: Dreams Of The Hypothermic Mind
*Year: 2010
*Genre: Black Metal/Ambient
*Country: United States (IMG:https://metalarea.org/forum/style_images/flags/United%20States.png)
*Format: mp3@CBR320kbps
*Size: 135MB

Tracklist:
01. Nature Shows Not Pity To Man/ Frozen Bear Corpse In The Full Moon 14:35
02. Relic Gigantopithecus 04:46
03. Festering Black Steelhead 07:50
04. Romancing A Witch 07:05
05. Dreams Of The Hypothermic Mind 11:03
06. Ghosts In The Taiga 14:53
******************************
Total playing time: 1:00:12

Preview 1

Technical info
(IMG:https://metalarea.org/images/spectrogram/2015_Jan/36aff9a5fc2ea078d409a00840014b07.png)
Input File: 02. Relic Gigantopithecus.mp3
Channels : 2
Sample Rate : 44100
Precision : 16-bit
Duration : 00:04:46.80 = 12647968 samples = 21510.1 CDDA sectors
File Size : 11.5M
Bit Rate : 320k
Sample Encoding: MPEG audio (layer I, II or III)
Comments :
Title=Relic Gigantopithecus
Artist=Skaltros
Album=Dreams of the Hypothermic Mind
Tracknumber=02
Year=2009



Register


Go to the top of the page
  Insert nick Quick quote
+Quote Post
 
Start new topic
Replies (1 - 3)
post Jul 4 2015, 19:53:41
Post #2

Правь статус, ####!111
**************
Group: Металариец
Posts: 6,610
Releases: 0
From: Москва
On Forums: 9 years 2 months
Thanks: 11586 time(s)
Russian Federation


Перезалейте плз
Go to the top of the page
  Insert nick Quick quote
+Quote Post
post Jul 4 2015, 20:06:29
Post #3

Семь Литров
*******
Group: Металариец
Posts: 757
Releases: 2
From: Сибирь
On Forums: 12 years 1 month
Thanks: 2074 time(s)
Russian Federation


зеркало
Register


Thanks:
(1) varlam4,
Go to the top of the page
  Insert nick Quick quote
+Quote Post
post May 17 2018, 00:21:37
Post #4

Group: Подсевший
Posts: 22
Releases: 0
From: The Road...
On Forums: 11 years 1 month
Thanks: 4 time(s)
Canada


Any chance on a new link? Just got my hands on Skaltros - Cedar Horror and can't get enough of it!

Thanks!
Go to the top of the page
  Insert nick Quick quote
+Quote Post

Reply to this topicStart new topic
1 User(s) are reading this topic (1 Guests and 0 Anonymous Users)
0 Members:

 



- Lo-Fi Version Support form
Copyrights and abuse reports form
Time is now: 18th October 2018 - 02:42:21