Welcome Guest ( Log In | Register )

> Skaltros - Plubuktosaga (2014), Black Metal/Ambient
post Jan 8 2015, 17:42:54
Post #1

Serial Uploader
Group Icon
Group: V.I.P
Posts: 32,537
Releases: 30836
From: Lithuania
On Forums: 9 years 11 months
Thanks: 354166 time(s)
Lithuania


(IMG:https://metalarea.org/images/audiocovers/2015_Jan/acov_tid237188_thumb.jpg)

*Artist: Skaltros
*Album: Plubuktosaga
*Year: 2014
*Genre: Black Metal/Ambient
*Country: United States (IMG:https://metalarea.org/forum/style_images/flags/United%20States.png)
*Format: mp3@CBR320kbps
*Size: 236MB

Tracklist:
CD 1:
01. The Dreamer's Fleeting Perception Of Time 04:26
02. An Afterlife Wandering Endless Logging Roads 14:11
03. Mining The Glaciated Stone Ruins 04:54
04. Frozen In Isolation Amidst Eternal Twilight 08:24
05. Camouflage Of Snow 06:59
06. Succor Of Isolation 08:32
07. Winter's Voice 04:40
CD 2:
08. Taiga's Huldra 04:19
09. Plubuktosaga 10:01
10. Scaling Barren Landslides 07:48
11. Grim Alpine Tyrant 05:21
12. Rites Of The Ghost Buck 09:02
13. Moss Pentagrams Of The North 11:09
14. Last Northern Embrace 07:01
******************************
Total playing time: 1:46:47

Preview 1

Technical info
(IMG:https://metalarea.org/images/spectrogram/2015_Jan/8ebc20ea51f049f1abd24f3df43b6fbc.png)
Input File: 03. Mining the Glaciated Stone Ruins.mp3
Channels : 2
Sample Rate : 44100
Precision : 16-bit
Duration : 00:04:54.14 = 12971706 samples = 22060.7 CDDA sectors
File Size : 11.8M
Bit Rate : 320k
Sample Encoding: MPEG audio (layer I, II or III)
Comments :
Title=Mining the Glaciated Stone Ruins
Artist=Skaltros
Album=Plubuktosaga
Tracknumber=03
Year=2013
Discnumber=1/2



Register


Вернуться к началу страницы
  Insert nick Quick quote
+Цитировать сообщение
 
Создать новую тему
Replies (1 - 5)
post Jul 4 2015, 19:52:26
Post #2

Правь статус, ####!111
**************
Group: Металариец
Posts: 6,609
Releases: 0
From: Москва
On Forums: 8 years 9 months
Thanks: 10966 time(s)
Russian Federation


Перезалейте плз
Вернуться к началу страницы
  Insert nick Quick quote
+Цитировать сообщение
post Jul 4 2015, 20:09:59
Post #3

Семь Литров
*******
Group: Металариец
Posts: 751
Releases: 2
From: Сибирь
On Forums: 11 years 8 months
Thanks: 1962 time(s)
Russian Federation


зеркало
Register


Thanks:
(1) varlam4,
Вернуться к началу страницы
  Insert nick Quick quote
+Цитировать сообщение
post May 17 2018, 00:21:57
Post #4

Group: Подсевший
Posts: 14
Releases: 0
On Forums: 10 years 8 months
Thanks: 4 time(s)
Canada


Any chance on a new link? Just got my hands on Skaltros - Cedar Horror and can't get enough of it!

Thanks!
Вернуться к началу страницы
  Insert nick Quick quote
+Цитировать сообщение
post May 17 2018, 00:31:16
Post #5

Going home. Flying high.
**************
Group: Металариец
Posts: 12,132
Releases: 0
From: The Land of Shadows
On Forums: 11 years 9 months
Thanks: 16633 time(s)
Russian Federation


from web
Register


Thanks:
(1) oden44,
Вернуться к началу страницы
  Insert nick Quick quote
+Цитировать сообщение
post May 17 2018, 00:54:14
Post #6

Group: Подсевший
Posts: 14
Releases: 0
On Forums: 10 years 8 months
Thanks: 4 time(s)
Canada


QUOTE(sperminator @ May 16 2018, 16:31:16) *
from web


Awesome! Thanks for the quick find!

Any chance you can hunt down Skaltros - Dreams Of The Hypothermic Mind (2010) and Skaltros - Prince Of Wales (2012) as well?
Вернуться к началу страницы
  Insert nick Quick quote
+Цитировать сообщение

ОтветитьСоздать новую тему
2 User(s) are reading this topic (2 Guests and 0 Anonymous Users)
0 Members:

 



- Lo-Fi Version Support form
Copyrights and abuse reports form
Time is now: 27th May 2018 - 09:01:36