Welcome Guest ( Log In | Register )

> Skaltros - Prince Of Wales (2012), Black Metal/Ambient
post Jan 9 2015, 10:16:34
Post #1

Serial Uploader
Group Icon
Group: V.I.P
Posts: 33,122
Releases: 31406
From: Lithuania
On Forums: 10 years 4 months
Thanks: 359193 time(s)
Lithuania


(IMG:https://metalarea.org/images/audiocovers/2015_Jan/acov_tid237223_thumb.jpg)

*Artist: Skaltros
*Album: Prince Of Wales
*Year: 2012
*Genre: Black Metal/Ambient
*Country: United States (IMG:https://metalarea.org/forum/style_images/flags/United%20States.png)
*Format: mp3@CBR320kbps
*Size: 276MB

Tracklist:
CD 1:
01. Taan (Prince Of Wales) 14:36
02. Thorne Bay 05:14
03. Mantle Of Frost 11:24
04. Whale Pass 02:20
05. Blackened Steeples 04:08
06. Hydaburg 02:08
07. Ptarmigan 11:43
08. Naukati 01:38
09. Heart Of A Marten 08:32
10. Sarkar 01:45
CD 2:
11. The Wild Hunt 08:02
12. Craig 04:50
13. The Mink And The Grouse 12:57
14. Kasaan 01:23
15. Wander Frozen Alpine Like A Drunken Mountain Goat 08:08
16. Hecata 01:08
17. Cernunnos At The Gate 05:25
18. Neck Lake 02:52
19. Forlorn Alaskan Draugar 12:52
20. Coffman Cove 03:01
******************************
Total playing time: 2:04:06

Preview 1
(IMG:https://metalarea.org/images/youtube.png)

Technical info
(IMG:http://metalarea.org/images/spectrogram/2015_Jan/0207b9d23efdae439bf7ff461e72a00b.png)
Input File: 09. Heart of a Marten.mp3
Channels : 2
Sample Rate : 44100
Precision : 16-bit
Duration : 00:08:32.16 = 22586036 samples = 38411.6 CDDA sectors
File Size : 20.5M
Bit Rate : 320k
Sample Encoding: MPEG audio (layer I, II or III)
Comments :
Title=Heart of a Marten
Artist=Skaltros
Album=Prince of Wales
Tracknumber=09
Year=2012
Discnumber=1/2



Register


Go to the top of the page
  Insert nick Quick quote
+Quote Post
 
Start new topic
Replies (1 - 1)
post May 17 2018, 00:21:17
Post #2

Group: Подсевший
Posts: 22
Releases: 0
From: The Road...
On Forums: 11 years 1 month
Thanks: 4 time(s)
Canada


Any chance on a new link? Just got my hands on Skaltros - Cedar Horror and can't get enough of it!

Thanks!
Go to the top of the page
  Insert nick Quick quote
+Quote Post

Reply to this topicStart new topic
1 User(s) are reading this topic (1 Guests and 0 Anonymous Users)
0 Members:

 



- Lo-Fi Version Support form
Copyrights and abuse reports form
Time is now: 17th October 2018 - 05:10:42