Welcome Guest ( Log In | Register )

> L'Ira Del Baccano - Terra 42 (2014), Psychedelic Doom Metal/Space/Progressive Rock
post Jan 9 2015, 13:36:17
Post #1

Serpent Doom
**************
Group: Металариец
Posts: 2,081
Releases: 639
From: Moscow region
On Forums: 9 years 10 months
Thanks: 11440 time(s)
Russian Federation


(IMG:http://metalarea.org/images/audiocovers/2015_Jan/acov_tid237235_thumb.jpg)

*Artist: L'Ira Del Baccano
*Album: Terra 42
*Year: 2014
*Genre: Psychedelic Doom Metal/Space/Progressive Rock
*Country: Italy (IMG:http://metalarea.org/forum/style_images/flags/Italy.png)
*Format: mp3@CBR320kbps
*Size: 144MB

Tracklist:
1. Phase I: The Infinite Improbability Drive 1 13:14
2. Phase I: The Infinite Improbability Drive 2 09:47
3. Phase I: The Infinite Improbability Drive 3 09:02
4. Phase II: Sussurri...Nel Bosco Di Diana 1 05:53
5. Phase II: Sussurri...Nel Bosco Di Diana 2 05:29
6. Phase III: Volcano X13 14:34
******************************
Total playing time: 57:59



Extended info
Instrumental


Technical info
(IMG:http://metalarea.org/images/spectrogram/2015_Jan/273722c8e100e74356bc33396e90b8a4.png)
Input File: L\\\'Ira Del Baccano - 05 - Terra 42 - Sussurri...Nel Bosco Di Diana Part 2.mp3
Channels : 2
Sample Rate : 44100
Precision : 16-bit
Duration : 00:05:28.67 = 14494435 samples = 24650.4 CDDA sectors
File Size : 13.1M
Bit Rate : 320k
Sample Encoding: MPEG audio (layer I, II or III)
Comments :
Title=Sussurri...Nel Bosco Di Diana Part 2
Artist=L'Ira Del Baccano
Album=Terra 42
Tracknumber=5/6
Year=2014
Genre=psych space stoner rock



Register


Go to the top of the page
  Insert nick Quick quote
+Quote Post
 
Start new topic
Replies (1 - 3)
post Jan 9 2015, 16:46:49
Post #2

Маньяк
**********
Group: Металариец
Posts: 1,225
Releases: 101
From: 56°24′00″ с. ш. 61°56′00″ в. д.
On Forums: 11 years 6 months
Thanks: 2140 time(s)
Russian Federation


Таково, чего бы вы не слышали ранее, нет в альбоме, но это качественно сыгранный инструментал. Слушается легко.


Thanks:
(2) cm3, KVRT,
Go to the top of the page
  Insert nick Quick quote
+Quote Post
post Feb 27 2015, 11:22:46
Post #3

Бэп!
****
Group: Металариец
Posts: 383
Releases: 1
On Forums: 11 years 4 months
Thanks: 52 time(s)
Uruguay


Понамешали. Как сказано уже выше качественный материал. Жаль что инструментал.
Go to the top of the page
  Insert nick Quick quote
+Quote Post
post Mar 14 2018, 11:00:38
Post #4

Forever Underground
**************
Group: Металариец
Posts: 4,565
Releases: 0
On Forums: 3 years 3 months
Thanks: 3682 time(s)
Unknown


Same bitrate:
Register
Go to the top of the page
  Insert nick Quick quote
+Quote Post

Reply to this topicStart new topic
2 User(s) are reading this topic (2 Guests and 0 Anonymous Users)
0 Members:

 



- Lo-Fi Version Support form
Copyrights and abuse reports form
Time is now: 17th July 2018 - 07:08:50