Welcome Guest ( Log In | Register )

> Marduk - Frontschwein (2015), Black Metal
post Jan 10 2015, 13:48:59
Post #1

Два Литра
**
Group: Завсегдатай
Posts: 197
Releases: 11
On Forums: 11 years 1 month
Thanks: 501 time(s)
Spain


(IMG:http://metalarea.org/images/audiocovers/2015_Jan/acov_tid237316_thumb.jpg)

*Artist: Marduk
*Album: Frontschwein
*Year: 2015
*Genre: Black Metal
*Country: Sweden (IMG:http://metalarea.org/forum/style_images/flags/Sweden.png)
*Format: mp3@CBR320kbps
*Size: 117MB

Tracklist:
1. Frontschwein 03:12
2. The Blond Beast 04:26
3. Afrika 04:00
4. Wartheland 04:16
5. Rope of Regret 03:51
6. Between the Wolf-Packs 04:28
7. Nebelwerfer 06:16
8. Falaise: Cauldron of Blood 04:57
9. Doomsday Elite 08:11
10. 503 05:11
11. Thousand-Fold Death 03:45
******************************
Total playing time: 52:33

Technical info
(IMG:http://metalarea.org/images/spectrogram/2015_Jan/cf4e6c2bff584332f35882a4ace53a18.png)
Input File: 01-Frontschwein.mp3
Channels : 2
Sample Rate : 44100
Precision : 16-bit
Duration : 00:03:11.99 = 8466583 samples = 14399 CDDA sectors
File Size : 7.68M
Bit Rate : 320k
Sample Encoding: MPEG audio (layer I, II or III)
Comments :
Title=Frontschwein
Artist=Marduk
Album=Frontschwein
Tracknumber=1/12
Year=2015
Genre=Black Metal



Register


Thanks:
(173) 0x13, 1968_janeart, 666BlackDeath, 666days, A.L.Rapsod, a1241861, acerbus, ad73, Akatamus, Alexis The Best, andeimon, Antiscum, aorta3, Arch_enemy95, Aresson, arioch82, Ballisargon, Barricade, Bas®, Beazth, BeerBear, berserkr, blackthorness, Boozer, BRUTAL06, Buregon, cancer1974, Cephalic, cesar, clublen, Constantinus I, crackedbrain, craP_cillA, CRUNCH, CTPEMLEHIE, d0zer, DarkHorde, ddarkthrone, deadterror, Demonologist, Der Sturmer, Disgorge666, djsema4, Dr.Grind Oim, Dunkelgrafen, Emhyr var Emreis, Extreme Brutal, fishish, fticek, garml2, gerb, goatlord, Golfzilla, gryphon, Helvete666, Henmik, horss, Hostis, Ice Gnoll, igore2911, Infidel, infiltrator, isvili, johnbutoff, JohnD, jpvalentim, Jurmagund, Kazoth, Kisser, Konst, Korpse, Koscheyushka, Kuzya, KVRT, Kwaad, LastSupper, Lord Noctua, Lux, mardak666, MeatKnife, metal73, Metropolis, Misanthrope@, MMMMM, mort, NachtWulf, Necro, Necromayhem, nihility, nsmetalhead, nugorod, ofuroboritch, Old Vyaine, oldvarg, Ominus_Nergal, Orgasmik, ozzfest, Panxoth, Phlebotomized, pooka, princeshr, QuadenThyrane, Radiosilence, randumbum, recber, RENыч, ripper33, Rofllipop, RoksVempire, Rosen, Ruben, Saalingurth, SadistikSlayer, samokot, sandr666, SatanicPanzer, satanist666, Sathana, scorn33, Semargl2010, Sethan, severina, Sjelekval, skeletron215, smes, soulskinner681, sperminator, spiritualdecay666, SS2998, StabWound, stribass, Strid, Stringer, Strygaldwir, stub888, Swastika, TeamatSE, the_cleanser, Thiarnan, Tino, toly1917, tont, tr00ps, Trobadour, Tundra, Typhoid, Typhon88, Unscarted, Utugg, varg-38ru, varlam4, Visitor, vmdrums, vo140182fav, Vorax, vosmidesijatye, vov7609, Wolfera, wOOx, Xabu, xska, Xyhu, ZambuL, zamunder, zar2005, Zoloft, Абигор, Варонъ, ДэтТ, Луч, металлист, некрософ, Смусмумбрик,
Вернуться к началу страницы
  Insert nick Quick quote
+Цитировать сообщение
5 Pages V  « < 3 4 5  
Создать новую тему
Replies (120 - 121)
post Aug 30 2017, 12:12:35
Post #121

Flowers Of The Underworld
**************
Group: Металариец
Posts: 4,542
Releases: 0
On Forums: 8 years 3 months
Thanks: 1961 time(s)
Unknown


Rom 5:12 по атмосфере мрака уделает вобще любой их альбом. На ранних альбомах у них нет ещё лица, нет той хитовости и мощи. Нет, Those Of The Unlight и Opus Nocturne мне тоже нравятся, но там они почти не идентифицируются как Мардук, к которому все привыкли.

Именно начиная с Найтвинга они уверенно научились комбинировать и лицо и атмосферу и мощь и хитовость,всё что заложилось на 96м. За исключением ПДМ, там упор именно на боевую мощь, хотя и запоминаемые врезающиеся трэки тоже есть. Но он пик творчества только по зубодробильности и напору. Никак не в целом.


Сабж - да с середины на половину хорош, но лучше плохоусвояемого Вормвуда (там мне кажется больше ФунералМистовая мозголомня проглядывает, что Мардуку ни к чему в больших пропорциях.)


Thanks:
Вернуться к началу страницы
  Insert nick Quick quote
+Цитировать сообщение
post Oct 12 2017, 04:05:41
Post #122

Четыре Литра
****
Group: Металариец
Posts: 341
Releases: 0
From: Луганск
On Forums: 10 years 3 weeks
Thanks: 42 time(s)
Ukraine


альбом хорош. вот хз, не знаю чем, но напомнил далекий 1996, Heaven Shall Burn... When We are Gathered и одновременно 1999, Panzer Division Marduk. ностальгия)))
Вернуться к началу страницы
  Insert nick Quick quote
+Цитировать сообщение

5 Pages V  « < 3 4 5
ОтветитьСоздать новую тему
2 User(s) are reading this topic (2 Guests and 0 Anonymous Users)
0 Members:

 



- Lo-Fi Version Support form
Copyrights and abuse reports form
Time is now: 23rd February 2018 - 21:16:55