Welcome Guest ( Log In | Register )

> 

Здесь релизы с живыми прямыми ссылками на lossless

> Dame En Noir - La Clef Des Songes (1998), Gothic/Doom Metal
post Jan 10 2015, 14:44:00
Post #1

...
**************
Group: Металариец
Posts: 3,229
Releases: 1353
From: МЕЩЁРА
On Forums: 10 years 5 months
Thanks: 38925 time(s)
Russian Federation


(IMG:http://metalarea.org/images/audiocovers/2015_Jan/acov_tid237323_thumb.jpg)

*Artist: Dame En Noir
*Album: La Clef Des Songes
*Year: 1998
*Genre: Gothic/Doom Metal
*Country: Italy (IMG:http://metalarea.org/forum/style_images/flags/Italy.png)
*Format: mp3@CBR320kbps
*Size: 146MB

Tracklist:
1. Dark Night Lullaby 04:08
2. La Novità Del Suono E Il Grande Lume 05:24
3. The Next Day 04:37
4. Dismal Beauty 06:47
5. Opened 04:45
6. Loving The Rain Spirit 04:31
7. Far From Home 04:16
8. To The Listening Emptiness 04:21
9. La Clef Des Songes 02:12
******************************
Total playing time: 41:01

Extended info
+ Scans.



Technical info
(IMG:http://metalarea.org/images/spectrogram/2015_Jan/729fa283ae3d3ab16cecd24459b5e1d5.png)
Input File: 4. Dismal Beauty.mp3
Channels : 2
Sample Rate : 44100
Precision : 16-bit
Duration : 00:06:47.24 = 17959196 samples = 30542.9 CDDA sectors
File Size : 16.3M
Bit Rate : 320k
Sample Encoding: MPEG audio (layer I, II or III)
Comments :
Title=Dismal Beauty
Artist=Dame En Noir
Album=La Clef Des Songes
Tracknumber=4
Year=1998
Genre=Gothic Doom Metal



Register


Go to the top of the page
  Insert nick Quick quote
+Quote Post
 
Start new topic
Replies (1 - 3)
post Jan 11 2015, 23:32:17
Post #2

ill-dis-punk
*******
Group: Металариец
Posts: 739
Releases: 7
From: Israel,Bat-Yam
On Forums: 12 years 1 week
Thanks: 143 time(s)
Israel


Не знаю, нравится или нет - необычного в альбоме данного стиля мне не хватает, однако точно не на одну прослушку - есть за что уцепиться.
Go to the top of the page
  Insert nick Quick quote
+Quote Post
post Jul 12 2018, 09:11:27
Post #3

Forever Underground
**************
Group: Металариец
Posts: 4,899
Releases: 0
On Forums: 3 years 5 months
Thanks: 4170 time(s)
Unknown


Please re-up... (I only own a very lossy version - 128kbps... (IMG:style_emoticons/default/6.gif) )
Go to the top of the page
  Insert nick Quick quote
+Quote Post
post Jul 19 2018, 11:24:30
Post #4

...
Group Icon
Group: S-moderation team
Posts: 6,960
Releases: 1286
On Forums: 7 years 6 months
Thanks: 34285 time(s)
Croatia


Register


Thanks:
Go to the top of the page
  Insert nick Quick quote
+Quote Post

Reply to this topicStart new topic
1 User(s) are reading this topic (1 Guests and 0 Anonymous Users)
0 Members:

 



- Lo-Fi Version Support form
Copyrights and abuse reports form
Time is now: 19th September 2018 - 07:42:56