Welcome Guest ( Log In | Register )

> Desolate Sun - Descending Stairways (2012), Gothic/Doom Metal
post Jan 12 2015, 21:28:39
Post #1

but I'm white and furry
**********
Group: Металариец
Posts: 1,276
Releases: 450
From: Москва
On Forums: 14 years 2 weeks
Thanks: 5736 time(s)
Russian Federation


(IMG:http://metalarea.org/images/audiocovers/2015_Jan/acov_tid237460_thumb.jpg)

*Artist: Desolate Sun
*Album: Descending Stairways
*Year: 2012
*Genre: Gothic/Doom Metal
*Country: Italy (IMG:http://metalarea.org/forum/style_images/flags/Italy.png)
*Format: mp3@CBR320kbps
*Size: 73MB

Tracklist:
1. The Only Way To Live 05:59
2. Estranged 03:54
3. Butterflies Fall 04:35
4. Numb 03:55
5. Never Ending Distrust 02:50
6. Astray 04:01
7. Dead Lights 04:29
8. Gone 01:38
******************************
Total playing time: 31:21

(IMG:http://metalarea.org/images/youtube.png)

Technical info
(IMG:http://metalarea.org/images/spectrogram/2015_Jan/c962f55a28f8003c16a81932c276bc3c.png)
Input File: 01 - The Only Way to Live.mp3
Channels : 2
Sample Rate : 48000
Precision : 16-bit
Duration : 00:05:59.69 = 17265168 samples ~ 26976.8 CDDA sectors
File Size : 14.4M
Bit Rate : 320k
Sample Encoding: MPEG audio (layer I, II or III)
Comments :
Title=The Only Way to Live
Artist=Desolate Sun
Album=Descending Stairways
Tracknumber=1
Year=2012
Genre=Metal



Register


Go to the top of the page
  Insert nick Quick quote
+Quote Post
 
Start new topic
Replies (1 - 4)
post Jan 15 2015, 20:54:59
Post #2

Это просто место… где все подошло к концу.
**************
Group: Металариец
Posts: 5,724
Releases: 0
From: Страны Мамонтов
On Forums: 13 years 3 days
Thanks: 2094 time(s)
Antarctica


А похоже все это дело на Pyogenesis, причем и из раннего, и из среднего периода творчества. И это гуд!


Thanks:
(1) Hughes,
Go to the top of the page
  Insert nick Quick quote
+Quote Post
post Jan 23 2015, 10:35:15
Post #3

Stultus Anethum Siccum.
******
Group: Металариец
Posts: 639
Releases: 0
On Forums: 11 years 1 month
Thanks: 69 time(s)
Unknown


ЦИТАТА(avather @ 15th January 2015 - 22:54:59) *
А похоже все это дело на Pyogenesis, причем и из раннего, и из среднего периода творчества. И это гуд!


Согласен насчёт гуда,но к сожалению,до "золотого" Пиодженезиса чуток не дотягивает...Ну и на том спасибо!
Go to the top of the page
  Insert nick Quick quote
+Quote Post
post Jan 14 2020, 18:11:51
Post #4

Литр
*
Group: Подсевший
Posts: 52
Releases: 0
From: Ростов н/Д
On Forums: 8 years 10 months
Thanks: 0 time(s)
Russian Federation


Перезалить сможете?
Go to the top of the page
  Insert nick Quick quote
+Quote Post
post Jan 18 2020, 16:52:55
Post #5


Group Icon
Group: S-moderation team
Posts: 14,138
Releases: 1439
From: Zagreb
On Forums: 8 years 11 months
Thanks: 61761 time(s)
Croatia


Register


Go to the top of the page
  Insert nick Quick quote
+Quote Post

Reply to this topicStart new topic
1 User(s) are reading this topic (1 Guests and 0 Anonymous Users)
0 Members:

 



- Lo-Fi Version Support form
Copyrights and abuse reports form
Time is now: 22nd February 2020 - 08:54:42