Welcome Guest ( Log In | Register )

> Black Lake - Fight Battle War [ep] (2014), Melodic Death Metal
post Jan 14 2015, 08:08:49
Post #1

Правь статус, ####!111
**************
Group: Металариец
Posts: 6,021
Releases: 5549
From: Lithuania
On Forums: 12 years 2 months
Thanks: 40243 time(s)
Lithuania


(IMG:https://metalarea.org/images/audiocovers/2015_Jan/acov_tid237539_thumb.jpg)

*Artist: Black Lake
*Album: Fight Battle War [ep]
*Year: 2014
*Genre: Melodic Death Metal
*Country: China (IMG:https://metalarea.org/forum/style_images/flags/China.png)
*Format: mp3@CBR320kbps
*Size: 33MB

Tracklist:
1. Freedom 02:13
2. The Dying Resistance 03:34
3. Sword of Honour 02:59
4. The Immortal Vow 05:45
******************************
Total playing time: 14:31

Preview 1

Technical info
(IMG:https://metalarea.org/images/spectrogram/2015_Jan/920ff1ed70bf0869ab3c88f74889480e.png)
Input File: 02 The Dying Resistance.mp3
Channels : 2
Sample Rate : 44100
Precision : 16-bit
Duration : 00:03:35.09 = 9485557 samples = 16131.9 CDDA sectors
File Size : 8.60M
Bit Rate : 320k
Sample Encoding: MPEG audio (layer I, II or III)
Comments :
Artist=Black Lake
Album=Fight Battle War
Tracknumber=2
Year=2014
Genre=9



Register


Go to the top of the page
  Insert nick Quick quote
+Quote Post
 
Start new topic
Replies (1 - 2)
post Jan 14 2015, 14:30:45
Post #2

Ъ
**************
Group: Металариец
Posts: 9,273
Releases: 9
On Forums: 9 years 11 months
Thanks: 1777 time(s)
Sweden


В превьюхе нашел только фридам, это инструментал, вообще не интересный, вторая называлась на китайском так что хз есть ли она тут, но то же ничего цепляющего, а вокал так лол просто.
Go to the top of the page
  Insert nick Quick quote
+Quote Post
post Oct 11 2018, 13:46:27
Post #3

Мегаманьяк
***********
Group: Металариец
Posts: 1,527
Releases: 0
From: MoscoW
On Forums: 12 years 1 week
Thanks: 1260 time(s)
Russian Federation


Залито по просьбе fr47 на Yadi.sk - 32.7Mb:
Register

(IMG:style_emoticons/default/metaler.gif)


Thanks:
(1) fr47,
Go to the top of the page
  Insert nick Quick quote
+Quote Post

Reply to this topicStart new topic
1 User(s) are reading this topic (1 Guests and 0 Anonymous Users)
0 Members:

 



- Lo-Fi Version Support form
Copyrights and abuse reports form
Time is now: 10th December 2018 - 04:52:23