Welcome Guest ( Log In | Register )

> Atomicide - Chaos Abomination (2015), Black/Death Metal
post Jan 23 2015, 21:57:10
Post #1

Правь статус, ####!111
**************
Group: Металариец
Posts: 17,774
Releases: 12047
From: Г.Харьков
On Forums: 7 years 2 months
Thanks: 202354 time(s)
Unknown


(IMG:http://metalarea.org/images/audiocovers/2015_Jan/acov_tid238118_thumb.jpg)

*Artist: Atomicide
*Album: Chaos Abomination
*Year: 2015
*Genre: Black/Death Metal
*Country: Chile (IMG:http://metalarea.org/forum/style_images/flags/Chile.png)
*Format: mp3@CBR320kbps
*Size: 76MB

Tracklist:
1. Is Vis Pacem Para Bellum 06:06
2. Pestilential Hammer Blows 03:14
3. A.T.O.M.I.C.I.D.E. 04:06
4. Preparing Your Gallows 03:32
5. Under the Spell of Destruction 04:28
6. Megaton Desolation 03:03
7. Poison Graves 03:52
8. Chaos Abomination 01:17
9. Victorious Over the Ashes 04:23
******************************
Total playing time: 34:01



Technical info
(IMG:http://metalarea.org/images/spectrogram/2015_Jan/7a31525d84d8dee3acbbc428a30ddba6.png)
Input File: 02 - Pestilential Hammer Blows.mp3
Channels : 2
Sample Rate : 48000
Precision : 16-bit
Duration : 00:03:13.68 = 9296784 samples ~ 14526.2 CDDA sectors
File Size : 7.75M
Bit Rate : 320k
Sample Encoding: MPEG audio (layer I, II or III)
Comments :
Title=Pestilential Hammer Blows
Artist=Atomicide
Album=Chaos Abomination
Tracknumber=2
Year=2015



Register


Go to the top of the page
  Insert nick Quick quote
+Quote Post
 
Start new topic
Replies (1 - 7)
post Jan 24 2015, 14:00:43
Post #2

Девять Литров
*********
Group: Металариец
Posts: 952
Releases: 0
From: Харьков
On Forums: 10 years 10 months
Thanks: 274 time(s)
Ukraine


Композы одна от другой неотличимы. Лично мое мнение, музыку из индонезий-колумбий-чили-индии и т.п. можно всегда смело обходить мимо. Сколько бы ни слушал, всегда или третьесортщина или шлак.


Thanks:
(1) rimfrost,
Go to the top of the page
  Insert nick Quick quote
+Quote Post
post Jan 24 2015, 14:27:18
Post #3

Сектант технодро4чер
**************
Group: Металариец
Posts: 5,442
Releases: 143
From: Тимчасово окупована територія
On Forums: 10 years 10 months
Thanks: 5645 time(s)
Ukraine


ЦИТАТА(nomadgg1 @ Jan 24 2015, 17:00:43) *
Лично мое мнение, музыку из индонезий-колумбий-чили-индии и т.п. можно всегда смело обходить мимо. Сколько бы ни слушал, всегда или третьесортщина или шлак.

(IMG:style_emoticons/default/normal_Homerdisgust3.png)


Go to the top of the page
  Insert nick Quick quote
+Quote Post
post Jan 24 2015, 23:54:58
Post #4

De Mysteriis Dom Sathanas
**************
Group: Металариец
Posts: 3,579
Releases: 63
From: Москва
On Forums: 11 years 5 days
Thanks: 3022 time(s)
Russian Federation


Индонезии/Индии у меня тоже команд нет,но из Колумбии одна Inquisition чего стоит..а у чилийцев есть достойные команды,пускай даже их мало..и эта входит в их число! (IMG:style_emoticons/default/pray.gif)
Go to the top of the page
  Insert nick Quick quote
+Quote Post
post Jan 25 2015, 09:03:51
Post #5

Stultus Anethum Siccum.
******
Group: Металариец
Posts: 634
Releases: 0
On Forums: 10 years 5 months
Thanks: 68 time(s)
Unknown


Не,ну проблески случаются.
Go to the top of the page
  Insert nick Quick quote
+Quote Post
post Mar 16 2015, 11:26:43
Post #6

redbird
**
Group: Завсегдатай
Posts: 193
Releases: 4
From: Санкт-Петербург
On Forums: 9 years 8 months
Thanks: 150 time(s)
Russian Federation


ЦИТАТА(hughes @ Jan 25 2015, 11:03:51) *
Не,ну проблески случаются.


К сожалению, тут только блики=)
Но даже с ними трудно различимо и в чём-нибудь да выделяемо. Даже если парни отбросят коньки, их всё равно не распознают. (IMG:style_emoticons/default/1488.gif)
Не хотелось бы ничем угощать. Ладно, кальмаров им под сальсой.
Go to the top of the page
  Insert nick Quick quote
+Quote Post
post Oct 19 2015, 08:53:51
Post #7

Group: Подсевший
Posts: 30
Releases: 0
On Forums: 10 years 2 weeks
Thanks: 5 time(s)
Russian Federation


someone plz upload this again ?
Go to the top of the page
  Insert nick Quick quote
+Quote Post
post Jan 22 2018, 07:21:29
Post #8


Group Icon
Group: S-moderation team
Posts: 11,163
Releases: 1438
From: Zagreb
On Forums: 8 years 4 months
Thanks: 47754 time(s)
Croatia


Register


Thanks:
(2) kim666, wgs73,
Go to the top of the page
  Insert nick Quick quote
+Quote Post

Reply to this topicStart new topic
1 User(s) are reading this topic (1 Guests and 0 Anonymous Users)
0 Members:

 



- Lo-Fi Version Support form
Copyrights and abuse reports form
Time is now: 19th July 2019 - 15:09:28