Welcome Guest ( Log In | Register )

> Resurrected - Penetrance Of Terror [ep] (2015), Brutal Death Metal (D)
post Jan 31 2015, 03:14:52
Post #1

Правь статус, ####!111
**************
Group: Металариец
Posts: 21,953
Releases: 15149
From: Г.Харьков
On Forums: 8 years 3 weeks
Thanks: 274912 time(s)
Unknown


(IMG:http://metalarea.org/images/audiocovers/2015_Jan/acov_tid238561_thumb.jpg)

*Artist: Resurrected
*Album: Penetrance Of Terror [ep]
*Year: 2015
*Genre: Brutal Death Metal
*Country: Germany (IMG:http://metalarea.org/forum/style_images/flags/Germany.png)
*Format: mp3@CBR320kbps
*Size: 23MB

Tracklist:
01. Mutated Generation 04:48
02. The Overkill To Dwell 02:35
03. Gorging On Mucus and Bile 02:54
******************************
Total playing time: 10:17



Technical info
(IMG:http://metalarea.org/images/spectrogram/2015_Jan/af4e0884d2239ef28873462d16db5798.png)
Input File: 01. Mutated Generation.mp3
Channels : 2
Sample Rate : 44100
Precision : 16-bit
Duration : 00:04:48.76 = 12734360 samples = 21657.1 CDDA sectors
File Size : 11.6M
Bit Rate : 320k
Sample Encoding: MPEG audio (layer I, II or III)
Comments :
Title=Mutated Generation
Artist=Resurrected
Album=Penetrance of Terror
Tracknumber=1
Year=2015
Genre=22



Register


Go to the top of the page
  Insert nick Quick quote
+Quote Post
 
Start new topic
Replies (1 - 1)
post Jul 30 2017, 01:36:33
Post #2

Правь статус, ####!111
**************
Group: Металариец
Posts: 7,032
Releases: 165
From: URUGUAY
On Forums: 13 years 8 months
Thanks: 19348 time(s)
Uruguay


320
Register


Thanks:
(1) artscald,
Go to the top of the page
  Insert nick Quick quote
+Quote Post

Reply to this topicStart new topic
1 User(s) are reading this topic (1 Guests and 0 Anonymous Users)
0 Members:

 



- Lo-Fi Version Support form
Copyrights and abuse reports form
Time is now: 5th June 2020 - 00:18:58