Welcome Guest ( Log In | Register )

> Typhon - Unholy Trilogy/Demo Rehearsal [compilation] (2013), Black Metal
post Nov 8 2014, 18:53:29
Post #1

the faceless one
Group Icon
Group: S-moderation team
Posts: 9,059
Releases: 1802
On Forums: 10 years 10 months
Thanks: 106448 time(s)
Russian Federation


(IMG:http://metalarea.org/images/audiocovers/2014_Nov/acov_tid233502_thumb.jpg)

*Artist: Typhon
*Album: Unholy Trilogy/Demo Rehearsal [compilation]
*Year: 2013
*Genre: Old School Black Metal
*Country: Colombia (IMG:http://metalarea.org/forum/style_images/flags/Colombia.png)
*Format: mp3@CBR192kbps
*Size: 114MB

Tracklist:
CD1:
01. Once Upon A Time 04:00
02. The Age 02:21
03. Evil And Lust 04:02
04. The Roman God 03:59
05. Magnificent Ritual Killer 04:07
06. Fucking Jesus 02:23
07. Red Night 03:51
08. Life Eternal 05:30
09. Satanic Warfare 03:27
10. Typhon 02:54
11. Worshipper Of Darkness 02:36
12. War Machine (Kiss Cover) 04:20
13. The Calm After The Storm 02:55
CD2:
01. Magnificent Ritual Killer 03:54
02. Life Eternal 05:08
03. The Roman God 03:43
04. Red Night 02:56
05. Evil And Lust 03:49
06. Fucking Jesus 02:16
07. Worshipper Of Darkness 02:19
08. The Age 02:16
09. Satanic Warfare 02:47
10. Once Upon A Time 03:55
******************************
Total playing time: 1:19:28

(IMG:http://metalarea.org/images/youtube.png)
(IMG:http://metalarea.org/images/youtube.png)
(IMG:http://metalarea.org/images/youtube.png)

Extended info
CD-Rip

Олдскульная пульсирующая чернь для фанатов Hellhammer, Destruction, Sarcofago, Mayhem. Релиз в нехилом оформлении 7" Giant Double Digipack: гигантский постер, 12 интервью с 1993-1997 гг., старые флаеры и редкие фото.

Buy CD - Salve Blasphemous Divine Underground!

Как всегда выкладывается эксклюзивно для портала.

БлагодАРРГГХХ за предоставленный материал камраду Zoretaan [BFM, Rutracker]


Technical info
(IMG:http://metalarea.org/images/spectrogram/2014_Nov/729a43cb6e420016ebee50d269bb3a61.png)
Input File: 02 - The Age.mp3
Channels : 2
Sample Rate : 44100
Precision : 16-bit
Duration : 00:02:20.97 = 6216777 samples = 10572.8 CDDA sectors
File Size : 3.38M
Bit Rate : 192k
Sample Encoding: MPEG audio (layer I, II or III)
Comments :
Title=The Age
Artist=Typhon
Album=Unholy Trilogy + Demo Rehearsal CD 1
Tracknumber=02
Year=2013
Genre="Black Metal"



Register


Go to the top of the page
  Insert nick Quick quote
+Quote Post
 
Start new topic
Replies (1 - 4)
post Nov 9 2014, 09:30:24
Post #2

Group: Подсевший
Posts: 34
Releases: 0
From: Орёл
On Forums: 8 years 3 months
Thanks: 3 time(s)
Unknown


охеренно!!!-уже имеется сие творение..
Go to the top of the page
  Insert nick Quick quote
+Quote Post
post Nov 9 2014, 09:49:33
Post #3

Четыре Литра
****
Group: Металариец
Posts: 314
Releases: 37
From: Московская обл.
On Forums: 11 years 10 months
Thanks: 533 time(s)
Russian Federation


Великолепно!!! Издают же по-настоящему стоящие вещи!
Go to the top of the page
  Insert nick Quick quote
+Quote Post
post Mar 18 2017, 18:38:59
Post #4

𝕻𝕬𝕹𝕬𝕮𝕰𝕬
******
Group: Металариец
Posts: 667
Releases: 372
On Forums: 7 years 2 weeks
Thanks: 5404 time(s)
Unknown


CBR 320 kbps
Register


Go to the top of the page
  Insert nick Quick quote
+Quote Post
post Jan 19 2019, 17:04:02
Post #5

Три Литра
***
Group: Завсегдатай
Posts: 213
Releases: 2
From: Екатеринбург
On Forums: 9 years 6 months
Thanks: 86 time(s)
Russian Federation


lossless
Register


Go to the top of the page
  Insert nick Quick quote
+Quote Post

Reply to this topicStart new topic
1 User(s) are reading this topic (1 Guests and 0 Anonymous Users)
0 Members:

 



- Lo-Fi Version Support form
Copyrights and abuse reports form
Time is now: 20th June 2019 - 20:05:46