Welcome Guest ( Log In | Register )

> Typhon - Unholy Trilogy (1996), Black Metal
Lion
post Feb 1 2015, 17:06:36
Post #1

Guests team






(IMG:https://metalarea.org/images/audiocovers/2015_Feb/acov_tid238670_thumb.jpg)

*Artist: Typhon
*Album: Unholy Trilogy
*Year: 1996
*Genre: Black Metal
*Country: Colombia (IMG:https://metalarea.org/forum/style_images/flags/Colombia.png)
*Format: mp3@CBR320kbps
*Size: 106MB

Tracklist:
1. Once upon a Time 04:00
2. The Age 02:21
3. Evil and Lust 04:02
4. The Roman God 03:59
5. Magnificent Ritual Killer 04:07
6. Fuckin' Jesus 02:23
7. Red Night 03:51
8. Life Eternal 05:30
9. Satanic Warfare 03:27
10. Typhon 02:54
11. Worshipper of Darkness 02:36
12. War Machine (Kiss cover) 04:20
13. The Calm After the Storm
******************************
Total playing time: 43:30

Technical info
(IMG:https://metalarea.org/images/spectrogram/2015_Feb/7e30d269399af508d1fc04093fcc8ade.png)
Input File: 01-Once Upon A Time.mp3
Channels : 2
Sample Rate : 44100
Precision : 16-bit
Duration : 00:04:02.52 = 10695132 samples = 18189 CDDA sectors
File Size : 9.73M
Bit Rate : 321k
Sample Encoding: MPEG audio (layer I, II or III)
Comments :
Title=Once Upon A Time
Artist=Typhon
Album=Unholy Trilogy
Tracknumber=1
Year=1996
Genre=138



Register


Go to the top of the page
  Insert nick Quick quote
+Quote Post
 
Start new topic
Replies (1 - 7)
post Feb 1 2015, 20:52:32
Post #2

Азъ есн Хаос
**********
Group: Металариец
Posts: 1,414
Releases: 164
From: Россия Москва
On Forums: 11 years 9 months
Thanks: 1615 time(s)
Russian Federation


Ну первая простая, но мелодия класная, этакий Forsth/Satyricon
Go to the top of the page
  Insert nick Quick quote
+Quote Post
post Feb 2 2015, 04:53:17
Post #3

эпистолярный садист
**************
Group: Металариец
Posts: 2,459
Releases: 1
From: Den Store Ruin
On Forums: 10 years 4 months
Thanks: 5522 time(s)
Ukraine


Тот самый предсмертный текст, написанный Дэдом и никогда им не спетый.
...да, Life Eternal был завещан к исполнению не только MAYHEM. Хотя на De Mysteriis Dom Sathanas он звучит несравненно загробнее.
Go to the top of the page
  Insert nick Quick quote
+Quote Post
post Feb 4 2015, 23:30:16
Post #4
BAN
RO till
--



Простите , в какой песне :,, предсмертный текст, написанный Дэдом и никогда им не спетый. ,, ?
Go to the top of the page
  Insert nick Quick quote
+Quote Post
post Feb 5 2015, 21:24:56
Post #5

Котеги! Нравяцо котеги?
**************
Group: Металариец
Posts: 4,912
Releases: 0
From: Терра Инкогнита
On Forums: 8 years 4 months
Thanks: 1728 time(s)
Russian Federation


WOLAND, лайф итёрнал жи
Go to the top of the page
  Insert nick Quick quote
+Quote Post
post Apr 3 2015, 01:36:57
Post #6

Маньяк
**********
Group: Металариец
Posts: 1,414
Releases: 0
From: Рівне
On Forums: 9 years 7 months
Thanks: 129 time(s)
Ukraine


Go to the top of the page
  Insert nick Quick quote
+Quote Post
post Mar 18 2017, 18:38:59
Post #7

𝕻𝕬𝕹𝕬𝕮𝕰𝕬
******
Group: Металариец
Posts: 582
Releases: 332
On Forums: 6 years 4 months
Thanks: 4531 time(s)
Unknown


CBR 320 kbps
Register


Go to the top of the page
  Insert nick Quick quote
+Quote Post
post Oct 11 2018, 17:08:53
Post #8

Два Литра
**
Group: Завсегдатай
Posts: 106
Releases: 2
From: Lysva Perm Area
On Forums: 8 years 10 months
Thanks: 79 time(s)
Russian Federation


лося плиз
Go to the top of the page
  Insert nick Quick quote
+Quote Post

Reply to this topicStart new topic
2 User(s) are reading this topic (2 Guests and 0 Anonymous Users)
0 Members:

 



- Lo-Fi Version Support form
Copyrights and abuse reports form
Time is now: 15th October 2018 - 12:09:04