Welcome Guest ( Log In | Register )

> Leah - Kings & Queens (2015), Symphonic/Celtic/Folk Metal (D4)
post Feb 2 2015, 13:58:14
Post #1

Serial Uploader
Group Icon
Group: V.I.P
Posts: 37,275
Releases: 35456
From: Lithuania
On Forums: 12 years 1 month
Thanks: 422400 time(s)
Lithuania


(IMG:https://metalarea.org/images/audiocovers/2015_Feb/acov_tid238742_thumb.jpg)

*Artist: Leah
*Album: Kings & Queens
*Year: 2015
*Genre: Symphonic/Celtic/Folk Metal
*Country: Canada (IMG:https://metalarea.org/forum/style_images/flags/Canada.png)
*Format: mp3@CBR320kbps
*Size: 192MB

Tracklist:
01. Arcadia 06:28
02. Save The World 05:00
03. Angel Fell 05:38
04. Enter The Highlands 06:29
05. In The Palm Of Your Hands 05:04
06. Alpha Et Omega 05:31
07. Heart Of Poison 05:08
08. Hourglass 04:32
09. Palace Of Dreams 07:45
10. This Present Darkness 06:35
11. The Crown 05:03
12. Remnant 04:46
13. There Is No Farewell 05:00
14. Siúil A Rún (Acoustic Version) 05:09
15. Siúil A Rún (Rock Version) (Bonus Track) 05:06
******************************
Total playing time: 1:23:14



Preview 3

Technical info
(IMG:https://metalarea.org/images/spectrogram/2015_Feb/4e271b8f9c4ca617f96be309aa409771.png)
Input File: 02. Save the World.mp3
Channels : 2
Sample Rate : 44100
Precision : 16-bit
Duration : 00:05:00.31 = 13243583 samples = 22523.1 CDDA sectors
File Size : 12.1M
Bit Rate : 322k
Sample Encoding: MPEG audio (layer I, II or III)
Comments :
Title=Save the World
Artist=Leah
Album=Kings & Queens
Tracknumber=2
Year=2015



Register


Go to the top of the page
  Insert nick Quick quote
+Quote Post
 
Start new topic
Replies (1 - 3)
post Feb 5 2015, 13:00:21
Post #2

Перевозчик
**************
Group: Металариец
Posts: 3,180
Releases: 0
On Forums: 12 years 4 weeks
Thanks: 715 time(s)
Russian Federation


Невнятная муть с женским полувокалом.


Thanks:
(1) MeatWolf,
Go to the top of the page
  Insert nick Quick quote
+Quote Post
post Nov 25 2016, 18:42:18
Post #3

Мегаманьяк
***********
Group: Металариец
Posts: 1,780
Releases: 0
On Forums: 7 years 9 months
Thanks: 2634 time(s)
Russian Federation


Альтернативная ссылка
Register
Go to the top of the page
  Insert nick Quick quote
+Quote Post
post Aug 1 2020, 16:12:04
Post #4

Добрый
**************
Group: Металариец
Posts: 4,154
Releases: 0
On Forums: 2 years 1 month
Thanks: 7510 time(s)
Russian Federation


194 mb/320 kbps
Register


Thanks:
Go to the top of the page
  Insert nick Quick quote
+Quote Post

Reply to this topicStart new topic
1 User(s) are reading this topic (1 Guests and 0 Anonymous Users)
0 Members:

 



- Lo-Fi Version Support form
Copyrights and abuse reports form
Time is now: 3rd August 2020 - 11:07:36