Welcome Guest ( Log In | Register )

> Vola - Inmazes (2015), Progressive Metal/Rock
post Feb 7 2015, 22:31:50
Post #1

Аннигилятор пивА
Group Icon
Group: V.I.P
Posts: 46,769
Releases: 14044
From: Koenigsberg - TILZIT
On Forums: 12 years 2 weeks
Thanks: 311744 time(s)
Russian Federation


(IMG:https://metalarea.org/images/audiocovers/2015_Feb/acov_tid239133_thumb.jpg)

*Artist: Vola
*Album: Inmazes
*Year: 2015
*Genre: Progressive Metal/Rock
*Country: Denmark (IMG:https://metalarea.org/forum/style_images/flags/Denmark.png)
*Format: mp3@CBR320kbps
*Size: 127MB

Tracklist:
01. The Same War 05:10
02. Stray The Skies 04:13
03. Starburn 06:05
04. Owls 05:51
05. Your Mind Is A Helpless Dreamer 05:21
06. Emily 03:01
07. Gutter Moon 03:55
08. A Stare Without Eyes 04:58
09. Feed The Creatures 05:37
10. Inmazes 07:29
******************************
Total playing time: 51:40




Extended info
Debut album Inmazes by VOLA.
Reminds Pink Floyd, King Crimson, Monuments and Uneven Structure... All mixed in a f***ing great way !!!
Album of the year so far, a very unique Rock-Metal masterpiece!

The Copenhagen-based quartet grew out of a common interest in eclectic, groove-oriented music which draws inspiration ranging from 70's progressive rock to modern day electronica, industrial and extreme metal.

Mastered by Jens Bogren( Opeth, Katatonia, Soilwork, James LaBrie, God Forbid, Kreator, Devin Townsend, Ihsahn, Dark Tranquillity, Paradise Lost, Amon Amarth, Dragonforce, Haken, Rotting Christ, Symphony X, Myrath)

Asger Mygind (guitar & vocals)
Martin Werner (keys & programming)
Nicolai Mogensen (bass)
Felix Ewert (drums)



Technical info
(IMG:https://metalarea.org/images/spectrogram/2015_Feb/590d37acf433d82e1c5e6767bc6872e9.png)
Input File: VOLA - Inmazes - 06 Emily.mp3
Channels : 2
Sample Rate : 44100
Precision : 16-bit
Duration : 00:03:01.44 = 8001372 samples = 13607.8 CDDA sectors
File Size : 7.58M
Bit Rate : 334k
Sample Encoding: MPEG audio (layer I, II or III)
Comments :
Title=Emily
Artist=VOLA
Album=Inmazes
Tracknumber=6
Year=2015



Register


Go to the top of the page
  Insert nick Quick quote
+Quote Post
 
Start new topic
Replies (1 - 5)
post Feb 8 2015, 10:43:15
Post #2

Ёлд ХеллоВяйне
Group Icon
Group: V.I.P
Posts: 25,564
Releases: 130
From: Питер
On Forums: 11 years 7 months
Thanks: 14063 time(s)
Russian Federation


QUOTE(aesteticvice @ 8th February 2015 - 01:31:50) *
Reminds Pink Floyd, King Crimson, Monuments and Uneven Structure...


Гораздо вернее написали на БК — dredg meets Periphery. Отличная штука (IMG:style_emoticons/default/20.gif)


Thanks:
Go to the top of the page
  Insert nick Quick quote
+Quote Post
post Feb 14 2015, 10:35:46
Post #3

Ъ
**************
Group: Металариец
Posts: 9,057
Releases: 9
On Forums: 9 years 5 months
Thanks: 1710 time(s)
Sweden


Вокал приличный, а вот эти заезженные дерганные рифы уже утомили, слушать больше 2х песен мазахизм, впрочем там и нечего.
Go to the top of the page
  Insert nick Quick quote
+Quote Post
post Oct 9 2016, 19:27:15
Post #4

Литр
*
Group: Подсевший
Posts: 59
Releases: 0
On Forums: 4 years 5 months
Thanks: 2 time(s)
France


dead link, can someone re-up please?
Go to the top of the page
  Insert nick Quick quote
+Quote Post
post Feb 14 2018, 23:20:43
Post #5

Правь статус, ####!111
**************
Group: Металариец
Posts: 3,233
Releases: 9
From: Москва и МО
On Forums: 11 years 11 months
Thanks: 780 time(s)
Russian Federation


Штука хорошая, вокал отличный. Но без джентов было бы просто в разы лучше. Умеют ведь играть и материал сочинять, но скатываются в банальщину порой. Но в целом, конечно, слушать нужно )
Go to the top of the page
  Insert nick Quick quote
+Quote Post
post Feb 15 2018, 22:36:44
Post #6

21st Century Schizoid Man
**************
Group: Металариец
Posts: 5,143
Releases: 67
From: Moscow
On Forums: 10 years 1 month
Thanks: 4052 time(s)
Russian Federation


На БК также доступны два бонус-трека. Не могу вспомнить, какого вокалиста очень напоминает.

Go to the top of the page
  Insert nick Quick quote
+Quote Post

Reply to this topicStart new topic
2 User(s) are reading this topic (2 Guests and 0 Anonymous Users)
0 Members:

 



- Lo-Fi Version Support form
Copyrights and abuse reports form
Time is now: 17th June 2018 - 22:47:10