Welcome Guest ( Log In | Register )

> Atra - Demo I [demo] (2009), Black Metal
Lion
post Feb 10 2015, 12:18:27
Post #1

Guests team






(IMG:http://metalarea.org/images/audiocovers/2015_Feb/acov_tid239281_thumb.jpg)

*Artist: Atra
*Album: Demo I [demo]
*Year: 2009
*Genre: Black Metal
*Country: Australia (IMG:http://metalarea.org/forum/style_images/flags/Australia.png)
*Format: mp3@CBR320kbps
*Size: 35MB

Tracklist:
1. Worship 02:53
2. Atra Sacramentum 03:56
3. Soul Demise 03:23
4. The Altar 04:16
******************************
Total playing time: 14:28

Technical info
(IMG:http://metalarea.org/images/spectrogram/2015_Feb/f7fb665f01651c8db58f5e58d0f41476.png)
Input File: 01 - Worship.mp3
Channels : 2
Sample Rate : 44100
Precision : 16-bit
Duration : 00:03:00.47 = 7958859 samples = 13535.5 CDDA sectors
File Size : 7.22M
Bit Rate : 320k
Sample Encoding: MPEG audio (layer I, II or III)
Comments :
Title=01 - Worship
Artist=Atra
Album=Demo I
Tracknumber=1
Year=2009
Genre=Black Metal



Register


Go to the top of the page
  Insert nick Quick quote
+Quote Post
 
Start new topic
Replies (1 - 3)
post Apr 13 2015, 13:00:22
Post #2

Маньяк
**********
Group: Металариец
Posts: 1,414
Releases: 0
From: Рівне
On Forums: 10 years 4 months
Thanks: 133 time(s)
Ukraine


Go to the top of the page
  Insert nick Quick quote
+Quote Post
post Mar 29 2016, 11:21:56
Post #3

Шесть Литров
******
Group: Металариец
Posts: 500
Releases: 0
On Forums: 7 years 2 months
Thanks: 37 time(s)
Belarus


перезалейте,пожалуйста
Go to the top of the page
  Insert nick Quick quote
+Quote Post
post Feb 11 2019, 08:25:41
Post #4

Prisoner Of Our Time
**************
Group: Металариец
Posts: 4,801
Releases: 43
From: Луганск, 13 регион, экс-"404"
On Forums: 13 years 8 months
Thanks: 1411 time(s)
Papua New Guinea


Register


Go to the top of the page
  Insert nick Quick quote
+Quote Post

Reply to this topicStart new topic
2 User(s) are reading this topic (2 Guests and 0 Anonymous Users)
0 Members:

 



- Lo-Fi Version Support form
Copyrights and abuse reports form
Time is now: 20th July 2019 - 06:47:26