Welcome Guest ( Log In | Register )

> Horde Of Draugar - Birth Of A Draugr (2012), Melodic Death/Viking Metal
post Feb 17 2015, 12:27:12
Post #1

Serial Uploader
Group Icon
Group: V.I.P
Posts: 37,112
Releases: 35296
From: Lithuania
On Forums: 11 years 9 months
Thanks: 418101 time(s)
Lithuania


(IMG:https://metalarea.org/images/audiocovers/2015_Feb/acov_tid239704_thumb.jpg)

*Artist: Horde Of Draugar
*Album: Birth Of A Draugr
*Year: 2012
*Genre: Melodic Death/Viking Metal
*Country: United States (IMG:https://metalarea.org/forum/style_images/flags/United%20States.png)
*Format: mp3@CBR320kbps
*Size: 60MB

Tracklist:
01. As The Sky Falls 02:49
02. Lycanthropic Disambiguation 04:11
03. Waves Of Betrayal 02:54
04. Purified By Fire 04:05
05. Birth Of A Draugr 04:10
06. Beneath Me Wood And Steel 02:52
07. First To Fall 04:25
******************************
Total playing time: 25:26



(IMG:https://metalarea.org/images/youtube.png)

Technical info
(IMG:https://metalarea.org/images/spectrogram/2015_Feb/1a8f708ea7a6473c4b527d0064aa0d63.png)
Input File: 02. Lycanthropic Disambiguation.mp3
Channels : 2
Sample Rate : 44100
Precision : 16-bit
Duration : 00:04:11.85 = 11106453 samples = 18888.5 CDDA sectors
File Size : 10.4M
Bit Rate : 330k
Sample Encoding: MPEG audio (layer I, II or III)
Comments :
Title=Lycanthropic Disambiguation
Artist=Horde of Draugar
Album=Birth of a Draugr
Tracknumber=02
Year=2012



Register


Go to the top of the page
  Insert nick Quick quote
+Quote Post
 
Start new topic
Replies (1 - 6)
post Feb 17 2015, 21:00:16
Post #2

Stultus Anethum Siccum.
******
Group: Металариец
Posts: 640
Releases: 0
On Forums: 11 years 2 months
Thanks: 73 time(s)
Unknown


Что-то слышится такое-эдакое..
Go to the top of the page
  Insert nick Quick quote
+Quote Post
post Feb 17 2015, 21:41:45
Post #3

Let's Go Ducks!
**************
Group: Металариец
Posts: 2,319
Releases: 10
From: Khazad-dûm
On Forums: 12 years 2 months
Thanks: 1095 time(s)
Ukraine


Очередная убогая пародия на могучих Амон Амарт


Thanks:
Go to the top of the page
  Insert nick Quick quote
+Quote Post
post Feb 18 2015, 17:01:11
Post #4

i listen to black metal
**************
Group: Металариец
Posts: 2,552
Releases: 132
From: Москва-Лианозово
On Forums: 13 years 3 months
Thanks: 2133 time(s)
Russian Federation


на видео-на их концерты ходят голимые мошеры дэткорщики(((
Go to the top of the page
  Insert nick Quick quote
+Quote Post
post Feb 2 2020, 09:40:17
Post #5

Правь статус, ####!111
**************
Group: Металариец
Posts: 2,476
Releases: 0
From: MoscoW
On Forums: 13 years 3 months
Thanks: 2073 time(s)
Russian Federation


Go to the top of the page
  Insert nick Quick quote
+Quote Post
post Feb 3 2020, 07:53:53
Post #6

Правь статус, ####!111
**************
Group: Металариец
Posts: 7,471
Releases: 0
From: Москва
On Forums: 10 years 8 months
Thanks: 13910 time(s)
Russian Federation


Перезалейте плз
Go to the top of the page
  Insert nick Quick quote
+Quote Post
post Feb 3 2020, 08:05:52
Post #7

Добрый
**************
Group: Металариец
Posts: 3,386
Releases: 0
On Forums: 1 year 9 months
Thanks: 4841 time(s)
Russian Federation


58 mb/320 kbps
Register


Thanks:
(1) varlam4,
Go to the top of the page
  Insert nick Quick quote
+Quote Post

Reply to this topicStart new topic
1 User(s) are reading this topic (1 Guests and 0 Anonymous Users)
0 Members:

 



- Lo-Fi Version Support form
Copyrights and abuse reports form
Time is now: 2nd April 2020 - 00:33:23