Welcome Guest ( Log In | Register )

> Call Forth The Hordes - Moving Onward [demo] (2015), Black Metal
post Feb 18 2015, 20:43:25
Post #1

Мастер волшебного кнута
**************
Group: Металариец
Posts: 3,784
Releases: 3508
From: Кронштадт, Санкт-Петербург
On Forums: 10 years 8 months
Thanks: 20760 time(s)
Russian Federation


(IMG:https://metalarea.org/images/audiocovers/2015_Feb/acov_tid239830_thumb.jpg)

*Artist: Call Forth The Hordes
*Album: Moving Onward [demo]
*Year: 2015
*Genre: Black Metal
*Country: United States (IMG:https://metalarea.org/forum/style_images/flags/United%20States.png)
*Format: mp3@CBR320kbps
*Size: 39MB

Tracklist:
01. Moving Onward 04:19
02. The Strength Inside 04:12
03. Moving Onward 04:17 (Instrumental)
04. The Strength Inside 04:13 (Instrumental)
******************************
Total playing time: 17:01



Technical info
(IMG:https://metalarea.org/images/spectrogram/2015_Feb/1ca9bcb60b583dbe3d13aa5edeb802be.png)
Input File: 01. Moving Onward.mp3
Channels : 2
Sample Rate : 44100
Precision : 16-bit
Duration : 00:04:18.56 = 11402408 samples = 19391.9 CDDA sectors
File Size : 10.4M
Bit Rate : 322k
Sample Encoding: MPEG audio (layer I, II or III)
Comments :
Title=Moving Onward
Artist=Call Forth the Hordes
Album=Moving Onward
Tracknumber=1
Year=2015
Genre=Black Metal



Register


Go to the top of the page
  Insert nick Quick quote
+Quote Post
 
Start new topic
Replies (1 - 1)
post Jul 12 2018, 10:00:46
Post #2

Forever Underground
**************
Group: Металариец
Posts: 4,569
Releases: 0
On Forums: 3 years 3 months
Thanks: 3683 time(s)
Unknown


VBR
Register


Thanks:
Go to the top of the page
  Insert nick Quick quote
+Quote Post

Reply to this topicStart new topic
1 User(s) are reading this topic (1 Guests and 0 Anonymous Users)
0 Members:

 



- Lo-Fi Version Support form
Copyrights and abuse reports form
Time is now: 17th July 2018 - 20:13:28