Welcome Guest ( Log In | Register )

> Path Of Might - Path Of Might (2015), Progressive Sludge/Doom Metal
post Feb 20 2015, 10:43:31
Post #1

Аннигилятор пивА
Group Icon
Group: V.I.P
Posts: 52,360
Releases: 16550
From: Koenigsberg - TILZIT
On Forums: 14 years 2 months
Thanks: 365752 time(s)
Russian Federation


(IMG:https://metalarea.org/images/audiocovers/2015_Feb/acov_tid239944_thumb.jpg)

*Artist: Path Of Might
*Album: Path Of Might
*Year: 2015
*Genre: Progressive Sludge/Doom Metal
*Country: United States (IMG:https://metalarea.org/forum/style_images/flags/United%20States.png)
*Format: mp3@CBR320kbps
*Size: 69MB

Tracklist:
1. Mountain of Flowers & Fruit 06:30
2. Boar Cult Blues 05:32
3. The Trespasser 07:00
4. Into the Fold 11:25
******************************
Total playing time: 30:27




Extended info
Influence: Neurosis, Crowbar, Intronaut, Mastodon, High on Fire...
Spencer- Guitar/Voice
Derek- Bass
Adam- Drums



Technical info
(IMG:https://metalarea.org/images/spectrogram/2015_Feb/0ea31d495251ad68ec636e6a2922fc4e.png)
Input File: Path of Might - Path of Might - 02 Boar Cult Blues.mp3
Channels : 2
Sample Rate : 44100
Precision : 16-bit
Duration : 00:05:32.86 = 14679126 samples = 24964.5 CDDA sectors
File Size : 13.6M
Bit Rate : 327k
Sample Encoding: MPEG audio (layer I, II or III)
Comments :
Title=Boar Cult Blues
Artist=Path of Might
Album=Path of Might
Tracknumber=2
Year=2015



Register


Go to the top of the page
  Insert nick Quick quote
+Quote Post
 
Start new topic
Replies (1 - 4)
post Feb 20 2015, 18:25:40
Post #2

Второе Поколение
*****
Group: Металариец
Posts: 486
Releases: 9
From: Малоярославца
On Forums: 11 years 3 months
Thanks: 515 time(s)
Russian Federation


Отлично! (IMG:style_emoticons/default/20.gif)


Thanks:
Go to the top of the page
  Insert nick Quick quote
+Quote Post
post Feb 22 2015, 21:28:24
Post #3

ME[ta]LLOMAN
**************
Group: Металариец
Posts: 4,970
Releases: 3
From: Avdeyevka
On Forums: 14 years 3 months
Thanks: 1963 time(s)
Honduras


оочень гуссто жырок наккладывают! (IMG:style_emoticons/default/9.gif) (IMG:style_emoticons/default/9.gif)


Go to the top of the page
  Insert nick Quick quote
+Quote Post
post Mar 3 2015, 21:14:34
Post #4

Правь статус, ####!111
**************
Group: Металариец
Posts: 46,988
Releases: 733
On Forums: 11 years 2 months
Thanks: 39627 time(s)
Russian Federation


И вправду отлично, густо, жирно. Где надо - разгон, где нет - замедления. И саунд глубокий и мощный. Вокал рычит аки раненый медведь. И психоделических наворотов хватает. Достойный стаф.
Go to the top of the page
  Insert nick Quick quote
+Quote Post
post Aug 1 2020, 17:13:52
Post #5

Мегаманьяк
***********
Group: Металариец
Posts: 1,848
Releases: 176
From: Omsk, Siberia
On Forums: 11 years 4 months
Thanks: 3782 time(s)
Russian Federation


newer links (320):
Register
Go to the top of the page
  Insert nick Quick quote
+Quote Post

Reply to this topicStart new topic
1 User(s) are reading this topic (1 Guests and 0 Anonymous Users)
0 Members:

 



- Lo-Fi Version Support form
Copyrights and abuse reports form
Time is now: 3rd August 2020 - 10:26:42