Welcome Guest ( Log In | Register )

> Bio-Cancer - Tormenting The Innocent (2015), Old School Thrash Metal
post Feb 22 2015, 14:23:14
Post #1

Аннигилятор пивА
Group Icon
Group: V.I.P
Posts: 52,358
Releases: 16557
From: Koenigsberg - TILZIT
On Forums: 13 years 2 months
Thanks: 361859 time(s)
Russian Federation


(IMG:http://metalarea.org/images/audiocovers/2015_Feb/acov_tid240065_thumb.jpg)

*Artist: Bio-Cancer
*Album: Tormenting The Innocent
*Year: 2015
*Genre: Old School Thrash Metal
*Country: Greece (IMG:http://metalarea.org/forum/style_images/flags/Greece.png)
*Format: mp3@CBR320kbps
*Size: 103MB

Tracklist:
01. Obligated to Incest 04:40
02. Tormenting the Innocent 05:20
03. Bulletproof 04:23
04. Boxed Out 04:11
05. F®iends or Fiends? 05:04
06. Think! 04:25
07. Chemical Castration 05:00
08. Haters Gonna … Suffer! 01:31
09. Life Is Tough (So Am I) 03:33
******************************
Total playing time: 38:07



Extended info
Line Up:
Giannhs - Bass, Vocals (backing) (Diablery, Domination)
Thanasis Andreou - Guitars
Lefteris - Vocals
Tomek S. - Drums (Mustpain, ex-Negative Creeps, ex-The Source, ex-Regulus, ex-The Crucifier, ex-Superficial Glow)
Stavros - Guitars (ex-Krushya)
Guest:
Varvara Tsotra - Cello
Andrei Bouzikov - Artwork (Autopsy, Cannabis Corpse, Dust Bolt, Municipal Waste, Skeletonwitch, Toxic Holocaust, Vektor, Violator and more...)


Technical info
(IMG:http://metalarea.org/images/spectrogram/2015_Feb/aa6a9683a2149cd1fc911722431fd523.png)
Input File: 08. Bio-Cancer - Haters Gonna … Suffer!.mp3
Channels : 2
Sample Rate : 44100
Precision : 16-bit
Duration : 00:01:29.09 = 3928825 samples = 6681.68 CDDA sectors
File Size : 5.11M
Bit Rate : 459k
Sample Encoding: MPEG audio (layer I, II or III)
Comments :
Title=Haters Gonna … Suffer!
Artist=Bio-Cancer
Album=Tormenting the Innocent
Tracknumber=8
Year=2015



Register


Go to the top of the page
  Insert nick Quick quote
+Quote Post
2 Pages V  < 1 2  
Start new topic
Replies (30 - 36)
post Apr 20 2015, 14:26:10
Post #31

Сектант технодро4чер
**************
Group: Металариец
Posts: 5,448
Releases: 143
From: Тимчасово окупована територія
On Forums: 10 years 11 months
Thanks: 5663 time(s)
Ukraine


Register


Register


Thanks:
Go to the top of the page
  Insert nick Quick quote
+Quote Post
post Apr 28 2015, 21:01:18
Post #32

Schuldinerist
**************
Group: Металариец
Posts: 10,294
Releases: 33
From:
On Forums: 12 years 4 months
Thanks: 6426 time(s)
Russian Federation


Соглашусь со многими, шикарнейший альбомище. Истеричный скриминг сначала показался не к месту, но потом... блин.. в нем-то как раз весь кайф!
Играют парни плотно и быстро, но с трудом назвал бы это трэшем, хотя по сути наверное да, это death\thrash.
9/10


Thanks:
Go to the top of the page
  Insert nick Quick quote
+Quote Post
post May 3 2015, 18:50:08
Post #33

Group: Подсевший
Posts: 42
Releases: 3
From: Київ
On Forums: 11 years 5 months
Thanks: 55 time(s)
Ukraine


Альбом просто угарнейший, за последние годы из трэша разве что Gama Bomb смогли так зацепить.


Thanks:
Go to the top of the page
  Insert nick Quick quote
+Quote Post
post May 4 2015, 08:29:44
Post #34

Котеги! Нравяцо котеги?
**************
Group: Металариец
Posts: 5,680
Releases: 0
From: Терра Инкогнита
On Forums: 9 years 2 months
Thanks: 2180 time(s)
Russian Federation


ЦИТАТА(Язва @ 29th April 2015 - 01:01:18) *
death\thrash.

а я бы сказал black thrash
Go to the top of the page
  Insert nick Quick quote
+Quote Post
post May 12 2017, 16:23:48
Post #35

Мегаманьяк
***********
Group: Металариец
Posts: 1,780
Releases: 0
On Forums: 6 years 9 months
Thanks: 2560 time(s)
Russian Federation


90 mb/320 кб/с
Register
Go to the top of the page
  Insert nick Quick quote
+Quote Post
post Dec 28 2017, 08:02:01
Post #36

Going home. Flying high.
**************
Group: Металариец
Posts: 12,882
Releases: 0
From: The Land of Shadows
On Forums: 13 years 3 days
Thanks: 20903 time(s)
Russian Federation


from the web - lossless
Register
Go to the top of the page
  Insert nick Quick quote
+Quote Post
post Jul 8 2019, 07:23:29
Post #37

Добрый
**************
Group: Металариец
Posts: 2,620
Releases: 0
On Forums: 1 year 1 month
Thanks: 2128 time(s)
Russian Federation


89 mb/320 kbps
Register


Thanks:
Go to the top of the page
  Insert nick Quick quote
+Quote Post

2 Pages V  < 1 2
Reply to this topicStart new topic
2 User(s) are reading this topic (2 Guests and 0 Anonymous Users)
0 Members:

 



- Lo-Fi Version Support form
Copyrights and abuse reports form
Time is now: 19th August 2019 - 04:30:43