Welcome Guest ( Log In | Register )

> Black Wytche - The Last Rytes [demo] (1986), Thrash/Speed Metal
post Feb 22 2015, 16:59:35
Post #1

Подвал
**************
Group: Металариец
Posts: 13,565
Releases: 7694
From: Far East (Khabarovsk)
On Forums: 10 years 6 months
Thanks: 74100 time(s)
Russian Federation


(IMG:http://metalarea.org/images/audiocovers/2015_Feb/acov_tid240079_thumb.gif)

*Artist: Black Wytche
*Album: The Last Rytes [demo]
*Year: 1986
*Genre: Thrash/Speed Metal
*Country: United States (IMG:http://metalarea.org/forum/style_images/flags/United%20States.png)
*Format: mp3@CBR320kbps
*Size: 44MB

Tracklist:
1. Master Of Death 04:26
2. Hellish Tormentor 05:33
3. The Pit Of Acheron 05:47
4. Last Ryte 03:38
******************************
Total playing time: 19:24

(IMG:http://metalarea.org/images/myspace.png)

Extended info
Their second demo.


Technical info
(IMG:http://metalarea.org/images/spectrogram/2015_Feb/d069b6992f6bc64a8c509c037a1d857b.png)
Input File: 01-Master Of Death.mp3
Channels : 2
Sample Rate : 44100
Precision : 16-bit
Duration : 00:04:26.35 = 11745859 samples = 19976 CDDA sectors
File Size : 10.7M
Bit Rate : 321k
Sample Encoding: MPEG audio (layer I, II or III)
Comments :
Title=Master Of Death
Artist=Black WГїtche
Album=The Last Rytes [Demo]
Tracknumber=1
Year=1986
Genre=Thrash Metal



Register


Go to the top of the page
  Insert nick Quick quote
+Quote Post
 
Start new topic
Replies (1 - 2)
post Mar 4 2018, 10:03:27
Post #2

Group: Подсевший
Posts: 16
Releases: 5
On Forums: 11 years 2 months
Thanks: 63 time(s)
Russian Federation


reupload pls!
Go to the top of the page
  Insert nick Quick quote
+Quote Post
post Mar 21 2018, 00:23:39
Post #3

Четыре Литра
****
Group: Металариец
Posts: 345
Releases: 3
From: Posadas Misiones
On Forums: 5 years 11 months
Thanks: 292 time(s)
Argentina


DEMOS FROM WEB
Register


Go to the top of the page
  Insert nick Quick quote
+Quote Post

Reply to this topicStart new topic
2 User(s) are reading this topic (2 Guests and 0 Anonymous Users)
0 Members:

 



- Lo-Fi Version Support form
Copyrights and abuse reports form
Time is now: 19th August 2019 - 07:25:39