Welcome Guest ( Log In | Register )

> Einvera - In Your Image (2011), Avant-Garde/Extreme Metal
post Feb 25 2015, 11:44:16
Post #1

Serial Uploader
Group Icon
Group: V.I.P
Posts: 37,532
Releases: 35706
From: Lithuania
On Forums: 12 years 10 months
Thanks: 431368 time(s)
Lithuania


(IMG:https://metalarea.org/images/audiocovers/2015_Feb/acov_tid240238_thumb.jpg)

*Artist: Einvera
*Album: In Your Image
*Year: 2011
*Genre: Avant-Garde/Extreme Metal
*Country: United States (IMG:https://metalarea.org/forum/style_images/flags/United%20States.png)
*Format: mp3@CBR320kbps
*Size: 76MB

Tracklist:
01. Static Ascension 03:54
02. Let In Without A Name (Sea Of Trees) 04:57
03. Invariably Transient 04:13
04. Send Me Home 02:06
05. Prismatic Distortion 04:35
06. In Your Image 06:01
07. The Gift Of A Ghost 02:50
08. A Mausoleum For The Living 04:39
******************************
Total playing time: 33:15

(IMG:https://metalarea.org/images/myspace.png)



Technical info
(IMG:https://metalarea.org/images/spectrogram/2015_Feb/ba034d927780a38a2840df56da3c3b2b.png)
Input File: 02. Let in Without a Name (Sea of Trees).mp3
Channels : 2
Sample Rate : 44100
Precision : 16-bit
Duration : 00:04:57.10 = 13101890 samples = 22282.1 CDDA sectors
File Size : 11.9M
Bit Rate : 320k
Sample Encoding: MPEG audio (layer I, II or III)
Comments :
Title=Let in Without a Name (Sea of Trees)
Artist=Einvera
Album=In Your Image
Tracknumber=02
Year=2011



Register


Go to the top of the page
  Insert nick Quick quote
+Quote Post
 
Start new topic
Replies (1 - 5)
post Feb 26 2015, 01:58:43
Post #2

Правь статус, ####!111
**************
Group: Металариец
Posts: 2,462
Releases: 12
From: Canada
On Forums: 13 years 10 months
Thanks: 1683 time(s)
Canada


Go to the top of the page
  Insert nick Quick quote
+Quote Post
post Apr 21 2016, 08:51:34
Post #3

but I'm white and furry
**********
Group: Металариец
Posts: 1,387
Releases: 499
From: Москва
On Forums: 15 years 2 months
Thanks: 6683 time(s)
Russian Federation


Перезалейте пожалуйста!
Go to the top of the page
  Insert nick Quick quote
+Quote Post
post Aug 29 2017, 01:16:23
Post #4

********
Group: Металариец
Posts: 846
Releases: 84
From: Москва/Моск. обл
On Forums: 13 years 6 months
Thanks: 2581 time(s)
Russian Federation


Очень качественный альбом, тут хорошо соблюден баланс безумия и тяжести
Go to the top of the page
  Insert nick Quick quote
+Quote Post
post Aug 29 2017, 07:27:14
Post #5

Шесть Литров
******
Group: Металариец
Posts: 586
Releases: 2
On Forums: 7 years 6 months
Thanks: 624 time(s)
Unknown


QUOTE(BlackArrow @ Apr 21 2016, 09:51:34) *
Перезалейте пожалуйста!

From the webz (Dark-World):
Register
Go to the top of the page
  Insert nick Quick quote
+Quote Post
post Jan 15 2021, 15:14:48
Post #6

Group: Подсевший
Posts: 12
Releases: 0
On Forums: 7 years 1 month
Thanks: 11 time(s)
Russian Federation


320
Register
Go to the top of the page
  Insert nick Quick quote
+Quote Post

Reply to this topicStart new topic
1 User(s) are reading this topic (1 Guests and 0 Anonymous Users)
0 Members:

 



- Lo-Fi Version Support form
Copyrights and abuse reports form
Time is now: 14th April 2021 - 14:34:30