Welcome Guest ( Log In | Register )

> Human Waste - Harvest Remnants [best of/compilation] (2015), Death Metal (D8)
post Mar 3 2015, 12:26:39
Post #1

Serial Uploader
Group Icon
Group: V.I.P
Posts: 35,408
Releases: 33620
From: Lithuania
On Forums: 11 years 1 week
Thanks: 385924 time(s)
Lithuania


(IMG:https://metalarea.org/images/audiocovers/2015_Mar/acov_tid240682_thumb.jpg)

*Artist: Human Waste
*Album: Harvest Remnants [best of/compilation]
*Year: 2015
*Genre: Death Metal
*Country: Spain (IMG:https://metalarea.org/forum/style_images/flags/Spain.png)
*Format: mp3@CBR320kbps
*Size: 159MB

Tracklist:
01. So Is Death 02:51
02. Cranial 02:12
03. The Men And Their Lives 04:01
04. The Almighty Protozoan 01:59
05. Pool Of Tears 02:45
06. Sacro Sanctum Semen 04:53
07. The Hegemony Of Reality 03:24
08. Pseudo-Disharmonic Excrescence Of Noiseous Micro-Kaos 00:15
09. Inert Bodies Distillation 03:33
10. The Silence 03:29
11. Existential Nausea 03:52
12. When Gravity Acts 04:39
13. Beauty Also Rots 04:41
14. Nonsense Time 02:39
15. Human Waste 04:32
16. Reaffirmation Of Repression 03:01
17. The Miracle Of Death 04:13
18. Pool Of Tears 03:49
19. Psychic Fear 04:45
20. Circle Of The Tyrants (Celtic Frost Cover) 04:23
******************************
Total playing time: 1:09:56

(IMG:https://metalarea.org/images/myspace.png)


(IMG:https://metalarea.org/images/youtube.png)

Extended info
Tracks 1-5 are from demo Promo 1993
Tracks 6-12 are from demo Existential Nausea 1992
Tracks 13-19 are from demo The Miracle Of Death 1991
Track 20 previously unreleased


Technical info
(IMG:https://metalarea.org/images/spectrogram/2015_Mar/d75812a52117133ba1e04b0d8799328f.png)
Input File: 02. Cranial.mp3
Channels : 2
Sample Rate : 44100
Precision : 16-bit
Duration : 00:02:12.77 = 5855113 samples = 9957.68 CDDA sectors
File Size : 5.39M
Bit Rate : 325k
Sample Encoding: MPEG audio (layer I, II or III)
Comments :
Title=Cranial
Artist=Human Waste
Album=Harvest Remnants
Tracknumber=2/20
Year=2015



Register


Go to the top of the page
  Insert nick Quick quote
+Quote Post
 
Start new topic
Replies (1 - 2)
post Mar 14 2015, 08:47:15
Post #2

Crush! Kill! Destroy!
**************
Group: Металариец
Posts: 4,951
Releases: 15
From: Kaliningrad
On Forums: 11 years 6 months
Thanks: 4530 time(s)
Russian Federation


Очень хорошая сборка, жаль что группа не смогла развить свои ранние наработки и выпустила довольно унылый альбом в итоге. А демки зело хорошИ.


Thanks:
(1) samokot,
Go to the top of the page
  Insert nick Quick quote
+Quote Post
post Jan 12 2019, 10:12:55
Post #3

Quaerite Lux in Tenebris
***********
Group: Металариец
Posts: 1,819
Releases: 36
From: Micsődőllő
On Forums: 8 years 11 months
Thanks: 3288 time(s)
Unknown


Линк из сети / 320 к (проверенные) - 162 Mb:
Register
Go to the top of the page
  Insert nick Quick quote
+Quote Post

Reply to this topicStart new topic
1 User(s) are reading this topic (1 Guests and 0 Anonymous Users)
0 Members:

 



- Lo-Fi Version Support form
Copyrights and abuse reports form
Time is now: 16th June 2019 - 06:29:11