Welcome Guest ( Log In | Register )

> Dimitriy Pavlovskiy's PowerSquad - Shrine Of The Wanderer (2015), Heavy/Power Metal
post Mar 3 2015, 20:33:29
Post #1

Правь статус, ####!111
**************
Group: Металариец
Posts: 19,855
Releases: 13469
From: Г.Харьков
On Forums: 7 years 7 months
Thanks: 233091 time(s)
Unknown


(IMG:http://metalarea.org/images/audiocovers/2015_Mar/acov_tid240710_thumb.jpg)

*Artist: Dimitriy Pavlovskiy's PowerSquad
*Album: Shrine Of The Wanderer
*Year: 2015
*Genre: Heavy/Power Metal
*Country: Ukraine (IMG:http://metalarea.org/forum/style_images/flags/Ukraine.png)
*Format: mp3@CBR320kbps
*Size: 105MB

Tracklist:
01. Journey 05:29
02. Spectrophobia [Fear] 05:26
03. Molder 04:50
04. Contour 04:01
05. Natural Ground 04:31
06. Bohyňa Usvitu 05:39
07. Abacinate 04:39
08. Screaming Pain 04:11
09. Abandonned Shrine of the Wanderer 06:33
10. Forgotten Nights 01:24
******************************
Total playing time: 46:43



Technical info
(IMG:http://metalarea.org/images/spectrogram/2015_Mar/c9ce865bd689d4da2fa8121272dedd8e.png)
Input File: 03. Dimitriy Pavlovskiy\\\'s Powersquad - Molder.mp3
Channels : 2
Sample Rate : 44100
Precision : 16-bit
Duration : 00:02:19.67 = 6159271 samples = 10475 CDDA sectors
File Size : 5.63M
Bit Rate : 323k
Sample Encoding: MPEG audio (layer I, II or III)
Comments :
Title=Molder
Artist=Dimitriy Pavlovskiy's Powersquad
Album=Shrine of the Wanderer
Tracknumber=3
Year=2015



Register


Go to the top of the page
  Insert nick Quick quote
+Quote Post
 
Start new topic
Replies (1 - 5)
post Mar 11 2015, 19:36:11
Post #2

Перевозчик
**************
Group: Металариец
Posts: 3,081
Releases: 0
On Forums: 11 years 5 months
Thanks: 677 time(s)
Russian Federation


Прогрессив хард рок. Третьесортный, да.
Go to the top of the page
  Insert nick Quick quote
+Quote Post
post Mar 11 2015, 20:21:10
Post #3

Крещенный в алкоголе
***********
Group: Металариец
Posts: 1,587
Releases: 30
From: Sea of darkness
On Forums: 14 years 2 months
Thanks: 698 time(s)
Israel


Дмитрий Павловский и БАТАЛЬОНЫ ВЕЛИКОЛЕПИЯ.
Дмитрий Павловский и ПОЛЧИЩА НЕКОНТРОЛИРУЕМОГО УЖАСА.
Дмитрий Павловский и ОРДА ПРЕВОЗМОГАНИЯ.
Дмитрий Павловский и ОТДЕЛЕНИЕ ХИТРЕЦОВ.
Дмитрий Павловский и АРМИЯ ОДНОГО ДМИТРИЯ ПАВЛОВСКОГО.


Go to the top of the page
  Insert nick Quick quote
+Quote Post
post Mar 11 2015, 21:22:10
Post #4

Peste noire
**************
Group: Металариец
Posts: 4,816
Releases: 7
From: http://gjoell.org/
On Forums: 13 years 7 months
Thanks: 1426 time(s)
Afghanistan


ЦИТАТА(Hellraizer @ Mar 11 2015, 19:21:10) *
Дмитрий Павловский и БАТАЛЬОНЫ ВЕЛИКОЛЕПИЯ.
Дмитрий Павловский и ПОЛЧИЩА НЕКОНТРОЛИРУЕМОГО УЖАСА.
Дмитрий Павловский и ОРДА ПРЕВОЗМОГАНИЯ.
Дмитрий Павловский и ОТДЕЛЕНИЕ ХИТРЕЦОВ.
Дмитрий Павловский и АРМИЯ ОДНОГО ДМИТРИЯ ПАВЛОВСКОГО.
Это лучшее что здесь есть.
Go to the top of the page
  Insert nick Quick quote
+Quote Post
post Mar 11 2015, 21:57:07
Post #5

Крещенный в алкоголе
***********
Group: Металариец
Posts: 1,587
Releases: 30
From: Sea of darkness
On Forums: 14 years 2 months
Thanks: 698 time(s)
Israel


Algis,

Спасибо товарищу Arsenot'у за его безумное вдохновение.
Go to the top of the page
  Insert nick Quick quote
+Quote Post
post Jan 15 2019, 23:46:57
Post #6

Правь статус, ####!111
**************
Group: Металариец
Posts: 44,608
Releases: 688
On Forums: 10 years 6 months
Thanks: 35876 time(s)
Russian Federation


А шо вы сопсна хотите?

Это стиль такой - тут пафос и напыщенность в порядке вещей

Вон Мановар же никто не sрет за их Хэйл килл эн дай и прочую тему (IMG:style_emoticons/default/25.gif)
Go to the top of the page
  Insert nick Quick quote
+Quote Post

Reply to this topicStart new topic
1 User(s) are reading this topic (1 Guests and 0 Anonymous Users)
0 Members:

 



- Lo-Fi Version Support form
Copyrights and abuse reports form
Time is now: 13th December 2019 - 15:10:12