Welcome Guest ( Log In | Register )

> Alkaloid - The Malkuth Grimoire (2015), Extreme Progressive Metal
post Mar 9 2015, 02:44:34
Post #1

Правь статус, ####!111
**************
Group: Металариец
Posts: 14,233
Releases: 9880
From: Г.Харьков
On Forums: 6 years 4 months
Thanks: 162267 time(s)
Unknown


(IMG:http://metalarea.org/images/audiocovers/2015_Mar/acov_tid241004_thumb.jpg)

*Artist: Alkaloid
*Album: The Malkuth Grimoire
*Year: 2015
*Genre: Extreme Progressive Metal
*Country: Germany (IMG:http://metalarea.org/forum/style_images/flags/Germany.png)
*Format: mp3@CBR320kbps
*Size: 164MB

Tracklist:
01. Carbon Phrases
02. From a Hadron Machinist
03. Cthulhu
04. Alter Magnitudes
05. Orgonism
06. Dyson Sphere - I.Mining the Oorth Cloud
07. Dyson Sphere - II.Assembly
08. Dyson Sphere - III.Kardashev 2.1-The God Oven
09. Dyson Sphere - IV.Sol Omega
10. The Malkuth Grimoire
11. C-Value Enigma
12. Funeral For a Continent
******************************
Total playing time: 1:13:04



Extended info
Morean – Vocals, Guitars (Dark Fortress, Noneuclid)
Christian Muenzner – Guitars (Spawn of Possession, Ex-Obscura, Ex-Necrophagist)
Danny Tunker – Guitars (Aborted, Ex-God Dethroned)
Linus Klausenitzer – Bass (Obscura, Noneuclid)
Hannes Grossmann – Drums (Blotted Science, Ex-Obscura, Ex-Necrophagist)


Technical info
(IMG:http://metalarea.org/images/spectrogram/2015_Mar/2ef1a5b88c0c398a4631c80aaa384143.png)
Input File: 03 - Cthulhu.mp3
Channels : 2
Sample Rate : 44100
Precision : 16-bit
Duration : 00:05:46.06 = 15261026 samples = 25954.1 CDDA sectors
File Size : 14.0M
Bit Rate : 323k
Sample Encoding: MPEG audio (layer I, II or III)
Comments :
Title=Cthulhu
Artist=Alkaloid
Album=The Malkuth Grimoire
Tracknumber=3
Year=2015
Genre=Progressive Technical Death Metal



Register


Go to the top of the page
  Insert nick Quick quote
+Quote Post
2 Pages V  < 1 2  
Start new topic
Replies (30 - 33)
post Jun 23 2015, 19:55:53
Post #31

Мегаманьяк
***********
Group: Металариец
Posts: 1,783
Releases: 0
From: Мытищи
On Forums: 10 years 6 months
Thanks: 997 time(s)
Russian Federation


ЦИТАТА(klg @ Apr 16 2015, 19:57:10) *
господи, какой унылый, скучный релиз. зацепиться уху не за что

Унылое и скучное мнение, глазам и мозгу зацепиться не за что (IMG:style_emoticons/default/21.gif)
Извини за прямоту, но лучше просто написать гуано, или уже объяснить почему именно так воспринял.
Go to the top of the page
  Insert nick Quick quote
+Quote Post
post Feb 5 2016, 22:18:14
Post #32

Schuldinerist
**************
Group: Металариец
Posts: 9,823
Releases: 33
From:
On Forums: 11 years 5 months
Thanks: 5968 time(s)
Russian Federation


Такое ощущение, что музыканты-виртуозы из Обскура и Некрофагист специально взяли новое название Алкалоид, чтобы издать не самые удачные свои творения и не сильно позориться. Есть конечно превосходные гитарные моменты Мюнцнера в концовке, и ударные Гроссмана тоже в общем без нарекания.
Но сам по себе материал на 6+/10.

ЦИТАТА(asog @ Mar 9 2015, 13:56:34) *
Исполнено всё технично, придраться не к чему, но музыка, по мне, так скучна, нудна, затянута, бездушна.

можно и так сказать


Thanks:
Go to the top of the page
  Insert nick Quick quote
+Quote Post
post Feb 8 2016, 20:57:59
Post #33

Schuldinerist
**************
Group: Металариец
Posts: 9,823
Releases: 33
From:
On Forums: 11 years 5 months
Thanks: 5968 time(s)
Russian Federation


что-то погорячился я с оценкой, гитара Мюнцнера на высоте, и уровень материала всё же приличный, видимо, мои ожидания были еще выше,
переоценка на 7+/10
Go to the top of the page
  Insert nick Quick quote
+Quote Post
post Jun 14 2018, 05:13:45
Post #34

Group: Дух
Posts: 7
Releases: 0
On Forums: 4 years 6 months
Thanks: 0 time(s)
Chile


please re up!
Go to the top of the page
  Insert nick Quick quote
+Quote Post

2 Pages V  < 1 2
Reply to this topicStart new topic
2 User(s) are reading this topic (2 Guests and 0 Anonymous Users)
0 Members:

 



- Lo-Fi Version Support form
Copyrights and abuse reports form
Time is now: 18th September 2018 - 18:31:14