Welcome Guest ( Log In | Register )

> Atomicide - Promo MMXIV A.B. [ep] (2014), Black/Death Metal
post Mar 9 2015, 14:02:06
Post #1

Мастер волшебного кнута
**************
Group: Металариец
Posts: 3,825
Releases: 3544
From: Кронштадт, Санкт-Петербург
On Forums: 11 years 6 months
Thanks: 21250 time(s)
Russian Federation


(IMG:https://metalarea.org/images/audiocovers/2015_Mar/acov_tid241050_thumb.jpg)

*Artist: Atomicide
*Album: Promo MMXIV A.B. [ep]
*Year: 2014
*Genre: Black/Death Metal
*Country: Chile (IMG:https://metalarea.org/forum/style_images/flags/Chile.png)
*Format: mp3@CBR320kbps
*Size: 21MB

Tracklist:
01. A.T.O.M.I.C.I.D.E. 04:11
02. Under The Spell Of Destruction 04:20
******************************
Total playing time: 8:31



Technical info
(IMG:https://metalarea.org/images/spectrogram/2015_Mar/b873dcb729906726fd0baf9789a515bd.png)
Input File: 01. A.T.O.M.I.C.I.D.E..mp3
Channels : 2
Sample Rate : 44100
Precision : 16-bit
Duration : 00:04:11.77 = 11102837 samples = 18882.4 CDDA sectors
File Size : 10.2M
Bit Rate : 324k
Sample Encoding: MPEG audio (layer I, II or III)
Comments :
Title=A.T.O.M.I.C.I.D.E.
Artist=Atomicide
Album=Promo MMXIV
Tracknumber=1
Year=2014
Genre=Black/Death Metal



Register


Go to the top of the page
  Insert nick Quick quote
+Quote Post
 
Start new topic
Replies (1 - 1)
post Mar 20 2015, 10:01:47
Post #2

Сектант технодро4чер
**************
Group: Металариец
Posts: 5,392
Releases: 143
From: Тимчасово окупована територія
On Forums: 10 years 7 months
Thanks: 5578 time(s)
Ukraine


А где полноформат?
Go to the top of the page
  Insert nick Quick quote
+Quote Post

Reply to this topicStart new topic
1 User(s) are reading this topic (1 Guests and 0 Anonymous Users)
0 Members:

 



- Lo-Fi Version Support form
Copyrights and abuse reports form
Time is now: 20th April 2019 - 21:41:38