Welcome Guest ( Log In | Register )

> Ejecutor & Atomicide - Ejecutor/Atomicide [split] (2007), Death/Thrash Metal | Death/Thrash Metal
Jacktheripper666
post Mar 9 2015, 18:50:35
Post #1

Guests team






(IMG:http://metalarea.org/images/audiocovers/2015_Mar/acov_tid241086_thumb.jpg)

*Artist: Ejecutor & Atomicide
*Album: Ejecutor/Atomicide [split]
*Year: 2007
*Genre: Death/Thrash Metal | Death/Thrash Metal
*Country: Chile (IMG:http://metalarea.org/forum/style_images/flags/Chile.png) | Chile (IMG:http://metalarea.org/forum/style_images/flags/Chile.png)
*Format: mp3@CBR320kbps
*Size: 99MB

Tracklist:
Ejecutor:
1. Mysterium Magnum 01:33
2. Deidad 02:57
3. Usurpación Sacrílega (Transcanalización Divina) 02:25
4. Circulo de Determinación 02:15
5. Metal Eternal 02:13
6. Advocación 02:53
7. Guerrero Astral 03:03
8. Majestuosa Inmortalidad 04:21
Atomicide:
9. Crushing Son of a Bitch 02:17
10. Drauge Rain 02:36
11. Troops of Extermination 01:43
12. Materialized Hate in Destruction 02:05
13. Death Metal Command 02:08
14. Atomizig the Jewish Dog 00:39
15. Atomicide 02:12
16. Pisagua in Burning Down 02:04
17. Spreading the War 01:47
18. Alcohol and Gunpower 02:43
19. Penetrate with my Panzerfaust 03:08
******************************
Total playing time: 45:02



Extended info
Proselytism PRO 005


Technical info
(IMG:http://metalarea.org/images/spectrogram/2015_Mar/11e59f5cdfea02a337bc7aa50afbfe0d.png)
Input File: 02. Ejecutor - Deidad.mp3
Channels : 2
Sample Rate : 44100
Precision : 16-bit
Duration : 00:02:57.68 = 7835644 samples = 13325.9 CDDA sectors
File Size : 7.10M
Bit Rate : 320k
Sample Encoding: MPEG audio (layer I, II or III)
Comments :
Title=Deidad
Artist=Ejecutor
Album=split w/ Atomicide
Tracknumber=02/19
Year=2007
Genre=Death Metal



Register


Go to the top of the page
  Insert nick Quick quote
+Quote Post
 
Start new topic
Replies (1 - 3)
post May 3 2015, 02:40:36
Post #2

Литр
*
Group: Подсевший
Posts: 72
Releases: 1
On Forums: 8 years 8 months
Thanks: 16 time(s)
United States


re up please
Go to the top of the page
  Insert nick Quick quote
+Quote Post
Jacktheripper666
post May 31 2015, 08:11:00
Post #3

Guests team






Reuploaded


Thanks:
Go to the top of the page
  Insert nick Quick quote
+Quote Post
post Aug 22 2018, 09:07:46
Post #4

Мегаманьяк
***********
Group: Металариец
Posts: 1,537
Releases: 0
On Forums: 2 years 9 months
Thanks: 88 time(s)
United Kingdom


Please can you re-up
Go to the top of the page
  Insert nick Quick quote
+Quote Post

Reply to this topicStart new topic
1 User(s) are reading this topic (1 Guests and 0 Anonymous Users)
0 Members:

 



- Lo-Fi Version Support form
Copyrights and abuse reports form
Time is now: 23rd April 2019 - 07:14:04