Welcome Guest ( Log In | Register )

> Dommedagssalme - Domain (2015), Raw Atmospheric Black Metal/Ambient
post Mar 12 2015, 23:06:29
Post #1

Правь статус, ####!111
**************
Group: Металариец
Posts: 4,231
Releases: 1145
From: Brazil
On Forums: 8 years 4 weeks
Thanks: 42678 time(s)
Brazil


(IMG:http://metalarea.org/images/audiocovers/2015_Mar/acov_tid241324_thumb.jpg)

*Artist: Dommedagssalme
*Album: Domain
*Year: 2015
*Genre: Raw Atmospheric Black Metal/Ambient
*Country: United Kingdom (IMG:http://metalarea.org/forum/style_images/flags/United%20Kingdom.png)
*Format: mp3@CBR320kbps
*Size: 185MB

Tracklist:
1.Barren 04:23
2.Exodus 16:15
3.Momentum 08:39
4.Inertia 12:58
5.Collapse 11:26
6.Discipline 08:14
7.Dominion 15:39
8.End 02:22
******************************
Total playing time: 1:19:56



Extended info
Brand new album and first CD appearence by Legion Blotan stalwart Dommedagssalme. 8 tracks of Barren, Epic, Desperate, Mournful and Noble Black Metal with a sound completely of it's own, carefully crafted over many years of solitude and hard work. With artwork by the sole member, John Marshall, this limited edition CD comes in a jewel case with 4 page booklet.


Technical info
(IMG:http://metalarea.org/images/spectrogram/2015_Mar/6b55f541f928a260c397d7ad7212275c.png)
Input File: Dommedagssalme - Domain - 02 Exodus.mp3
Channels : 2
Sample Rate : 44100
Precision : 16-bit
Duration : 00:16:15.48 = 43018536 samples = 73160.8 CDDA sectors
File Size : 39.2M
Bit Rate : 322k
Sample Encoding: MPEG audio (layer I, II or III)
Comments :
Title=Exodus
Artist=Dommedagssalme
Album=Domain
Tracknumber=2
Year=2015



Register

Register


This post has been edited by DarkHorde: Nov 19 2015, 13:33:01


Go to the top of the page
  Insert nick Quick quote
+Quote Post
 
Start new topic
Replies (1 - 1)
post Mar 15 2015, 19:00:50
Post #2

любитель шведской buzzzzy'ны
**************
Group: Металариец
Posts: 7,249
Releases: 348
From: На берегах Оки и Волги одновремеННо
On Forums: 13 years 2 months
Thanks: 23283 time(s)
Russian Federation


Пасаны ваще не заморачивались по поводу обложки


Thanks:
Go to the top of the page
  Insert nick Quick quote
+Quote Post

Reply to this topicStart new topic
1 User(s) are reading this topic (1 Guests and 0 Anonymous Users)
0 Members:

 



- Lo-Fi Version Support form
Copyrights and abuse reports form
Time is now: 29th February 2020 - 05:21:16