Welcome Guest ( Log In | Register )

> Garden Of Grief & Neige Et Noirceur - Garden Of Grief & Neige Et Noirceur [split] (2012), Black Metal | Black Metal
post Mar 24 2015, 19:22:28
Post #1

Шесть Литров
******
Group: Металариец
Posts: 576
Releases: 76
From: SteelCity, Upper Austria
On Forums: 7 years 2 months
Thanks: 1045 time(s)
Austria


(IMG:http://metalarea.org/images/audiocovers/2015_Mar/acov_tid242101_thumb.jpg)

*Artist: Garden Of Grief & Neige Et Noirceur
*Album: Garden Of Grief & Neige Et Noirceur [split]
*Year: 2012
*Genre: Black Metal | Black Metal
*Country: Austria (IMG:http://metalarea.org/forum/style_images/flags/Austria.png) | Canada (IMG:http://metalarea.org/forum/style_images/flags/Canada.png)
*Format: mp3@CBR320kbps
*Size: 33MB

Tracklist:
Garden Of Grief:
01. HiberNation 06:40
Neige Et Noirceur:
02. Temps Anciens 04:00
03. Les Feux Du Bucher 03:47
******************************
Total playing time: 14:27



Preview 4

Extended info
Released on 2012-11-30 by Atramentum Productions.
500 7" vinyl copies (125 black+125 red+125 blue+125 green Vinyl)


Technical info
(IMG:http://metalarea.org/images/spectrogram/2015_Mar/59150ffa5da081d50e6b580ba28072a8.png)
Input File: (V.A.) — 2012 — Garden of Grief & Neige et Noirceur — 01 — Garden of Grief — HiberNation.mp3
Channels : 2
Sample Rate : 44100
Precision : 16-bit
Duration : 00:06:40.24 = 17650408 samples = 30017.7 CDDA sectors
File Size : 16.0M
Bit Rate : 320k
Sample Encoding: MPEG audio (layer I, II or III)
Comments :
Title=HiberNation
Artist=Garden of Grief
Album=Garden of Grief & Neige et Noirceur
Tracknumber=01
Year=2012
Genre=Black Metal



Register


Go to the top of the page
  Insert nick Quick quote
+Quote Post
 
Start new topic
Replies (1 - 2)
post Feb 4 2019, 08:10:36
Post #2

Group Icon
Group: S-moderation team
Posts: 15,553
Releases: 1440
From: Zagreb
On Forums: 9 years 3 months
Thanks: 69084 time(s)
Croatia


please reup (in 320)
Go to the top of the page
  Insert nick Quick quote
+Quote Post
post May 23 2020, 12:41:14
Post #3

Правь статус, ####!111
**************
Group: Металариец
Posts: 8,143
Releases: 0
From: Москва
On Forums: 10 years 9 months
Thanks: 14469 time(s)
Russian Federation


Перезалейте плз
Go to the top of the page
  Insert nick Quick quote
+Quote Post

Reply to this topicStart new topic
1 User(s) are reading this topic (1 Guests and 0 Anonymous Users)
0 Members:

 



- Lo-Fi Version Support form
Copyrights and abuse reports form
Time is now: 28th May 2020 - 13:06:51