Welcome Guest ( Log In | Register )

> In Stadio Ultimo - The Final Days... End Of All... Begin Of Hell... (2011), Black Metal
post Mar 25 2015, 12:18:28
Post #1

Литр
*
Group: Подсевший
Posts: 50
Releases: 11
On Forums: 6 years 4 months
Thanks: 261 time(s)
Unknown


(IMG:https://metalarea.org/images/audiocovers/2015_Mar/acov_tid242134_thumb.jpg)

*Artist: In Stadio Ultimo
*Album: The Final Days... End Of All... Begin Of Hell...
*Year: 2011
*Genre: Black Metal
*Country: Germany (IMG:https://metalarea.org/forum/style_images/flags/Germany.png)
*Format: mp3@CBR320kbps
*Size: 112MB

Tracklist:
1. Syndrom S
2. Desperation
3. LL-Song
4. Black Emotion
5. Sweet Desire
6. Shrouded in Apathie
******************************
Total playing time: 49:10

(IMG:https://metalarea.org/images/youtube.png)

Extended info
Im looking for the special edition that comes with this vinyl but cannot find it. Probably lost, i'll upload it if i find it someday.
For now this will have to do.


Technical info
(IMG:https://metalarea.org/images/spectrogram/2015_Mar/c2f94936ce3a1a86c9d3f0aa158acdc8.png)
Input File: 02 Desperation.mp3
Channels : 2
Sample Rate : 44100
Precision : 16-bit
Duration : 00:06:27.09 = 17070801 samples = 29032 CDDA sectors
File Size : 15.5M
Bit Rate : 320k
Sample Encoding: MPEG audio (layer I, II or III)
Comments :
Title=Desperation
Artist=In Stadio Ultimo
Album=The Final Days... End of All... Begin of Hell...
Tracknumber=2
Year=2011
Genre=Depressive Black Metal



Register


Вернуться к началу страницы
  Insert nick Quick quote
+Цитировать сообщение
 
Создать новую тему
Replies (1 - 3)
post Mar 25 2015, 20:13:22
Post #2

Black Metal - Dødsengel
**********
Group: Металариец
Posts: 1,334
Releases: 352
From: Black Hole Sokolov, region Karlovy Vary
On Forums: 8 years 11 months
Thanks: 6764 time(s)
Czech Republic


Big front cover

(IMG:http://p2.uloziste.com/fotky6/te0058ac9471d125/86152f95e8dc553e.jpg)
Вернуться к началу страницы
  Insert nick Quick quote
+Цитировать сообщение
post Mar 26 2015, 13:24:04
Post #3

Литр
*
Group: Подсевший
Posts: 50
Releases: 11
On Forums: 6 years 4 months
Thanks: 261 time(s)
Unknown


QUOTE(Constantinus I @ Mar 25 2015, 19:13:22) *


That's made up. Not the orginal artwork.
Вернуться к началу страницы
  Insert nick Quick quote
+Цитировать сообщение
post Sep 13 2017, 21:12:08
Post #4

Маньяк
**********
Group: Металариец
Posts: 1,289
Releases: 0
From: MoscoW
On Forums: 11 years 2 months
Thanks: 858 time(s)
Russian Federation


Перезалейте, пожалуйста!!!
Re-up plizzz...
(IMG:style_emoticons/default/pray.gif) (IMG:style_emoticons/default/pray.gif) (IMG:style_emoticons/default/pray.gif)
Вернуться к началу страницы
  Insert nick Quick quote
+Цитировать сообщение

ОтветитьСоздать новую тему
1 User(s) are reading this topic (1 Guests and 0 Anonymous Users)
0 Members:

 



- Lo-Fi Version Support form
Copyrights and abuse reports form
Time is now: 19th February 2018 - 16:41:43