Welcome Guest ( Log In | Register )

> Chainsaw Castration & Visions Of Disfigurement - Involuntary Cranial Excision [split] (2015), Brutal Death Metal | Brutal Death Metal/Deathcore
post Mar 26 2015, 13:43:22
Post #1

Serial Uploader
Group Icon
Group: V.I.P
Posts: 32,459
Releases: 30758
From: Lithuania
On Forums: 9 years 11 months
Thanks: 353377 time(s)
Lithuania


(IMG:https://metalarea.org/images/audiocovers/2015_Mar/acov_tid242187_thumb.jpg)

*Artist: Chainsaw Castration & Visions Of Disfigurement
*Album: Involuntary Cranial Excision [split]
*Year: 2015
*Genre: Brutal Death Metal | Brutal Death Metal/Deathcore
*Country: United Kingdom (IMG:https://metalarea.org/forum/style_images/flags/United%20Kingdom.png) | United Kingdom (IMG:https://metalarea.org/forum/style_images/flags/United%20Kingdom.png)
*Format: mp3@CBR320kbps
*Size: 34MB

Tracklist:
Chainsaw Castration:
01. Emergency Room Complex 01:08
02. Contorted And Aborted 02:58
03. Enucleation Euphoria 01:57
Visions Of Disfigurement:
04. 0161 01:10
05. Necrotic Cranial Fornication 03:34
06. Disassociative Identity Disorder 03:25
******************************
Total playing time: 14:12





Technical info
(IMG:https://metalarea.org/images/spectrogram/2015_Mar/663fb1e11db3ab2568c931f49a173a2c.png)
Input File: 03. Enucleation Euphoria.mp3
Channels : 2
Sample Rate : 44100
Precision : 16-bit
Duration : 00:01:57.35 = 5175267 samples = 8801.47 CDDA sectors
File Size : 4.96M
Bit Rate : 338k
Sample Encoding: MPEG audio (layer I, II or III)
Comments :
Title=Enucleation Euphoria
Artist=Chainsaw Castration
Album=Involuntary Cranial Excision (Split)
Tracknumber=3
Year=2015



Register


Вернуться к началу страницы
  Insert nick Quick quote
+Цитировать сообщение
 
Создать новую тему
Replies (1 - 3)
post Mar 26 2015, 20:59:16
Post #2

ill-dis-punk
*******
Group: Металариец
Posts: 723
Releases: 7
From: Israel,Bat-Yam
On Forums: 11 years 8 months
Thanks: 136 time(s)
Israel


Awesome cover!!!
Вернуться к началу страницы
  Insert nick Quick quote
+Цитировать сообщение
post Oct 21 2016, 22:23:29
Post #3

Правь статус, ####!111
**************
Group: Металариец
Posts: 6,609
Releases: 0
From: Москва
On Forums: 8 years 9 months
Thanks: 10958 time(s)
Russian Federation


Register
320
Вернуться к началу страницы
  Insert nick Quick quote
+Цитировать сообщение
post Dec 6 2017, 19:40:57
Post #4

Split Backup Copy
**************
Group: Металариец
Posts: 4,863
Releases: 243
From: с. Мизоново, Ишимский Район, Тюменская область
On Forums: 10 years 5 months
Thanks: 3263 time(s)
Russian Federation


Перезалейте, пожалуйста.
Вернуться к началу страницы
  Insert nick Quick quote
+Цитировать сообщение

ОтветитьСоздать новую тему
1 User(s) are reading this topic (1 Guests and 0 Anonymous Users)
0 Members:

 



- Lo-Fi Version Support form
Copyrights and abuse reports form
Time is now: 24th May 2018 - 01:17:17