Welcome Guest ( Log In | Register )

> Impure Violation - Lust In A Vulgar Display Of Violence (2015), Brutal Death Metal
post Mar 31 2015, 12:08:57
Post #1

Serial Uploader
Group Icon
Group: V.I.P
Posts: 35,643
Releases: 33848
From: Lithuania
On Forums: 11 years 1 month
Thanks: 389986 time(s)
Lithuania


(IMG:https://metalarea.org/images/audiocovers/2015_Mar/acov_tid242553_thumb.jpg)

*Artist: Impure Violation
*Album: Lust In A Vulgar Display Of Violence
*Year: 2015
*Genre: Brutal Death Metal
*Country: Australia (IMG:https://metalarea.org/forum/style_images/flags/Australia.png)
*Format: mp3@CBR320kbps
*Size: 76MB

Tracklist:
01. Unfathomable Depths Of Denial Unto Psychosis 02:10
02. Lust In A Vulgar Display Of Violence 02:38
03. Suffering Within The Realm Of Illusion 02:36
04. Birth Of The Harlequin Atrocity 03:01
05. Children In Decay 03:48
06. Semi-Conscious Autopsy 02:23
07. Celestial Plains Of Non-Existence 03:40
08. Scriptures Of Sacrificial Warfare 03:30
09. Religion Of The Impure 04:59
10. Carrion Of The Void 03:45
******************************
Total playing time: 32:30





Technical info
(IMG:https://metalarea.org/images/spectrogram/2015_Mar/3b5c6d9c76a44fccfd40695327044a71.png)
Input File: 05. Children In Decay.mp3
Channels : 2
Sample Rate : 44100
Precision : 16-bit
Duration : 00:03:48.94 = 10096034 samples = 17170.1 CDDA sectors
File Size : 9.35M
Bit Rate : 327k
Sample Encoding: MPEG audio (layer I, II or III)
Comments :
Title=Children In Decay
Artist=Impure Violation
Album=Lust In A Vulgar Display Of Violence
Tracknumber=5
Year=2015
Genre=Brutal Death Metal



Register


Go to the top of the page
  Insert nick Quick quote
+Quote Post
 
Start new topic
Replies (1 - 2)
post Dec 18 2018, 11:24:39
Post #2

Group: Подсевший
Posts: 18
Releases: 0
On Forums: 7 months 3 weeks
Thanks: 9 time(s)
Unknown


Register



Go to the top of the page
  Insert nick Quick quote
+Quote Post
post Jun 13 2019, 21:33:57
Post #3

Мегаманьяк
***********
Group: Металариец
Posts: 1,916
Releases: 0
From: MoscoW
On Forums: 12 years 7 months
Thanks: 1670 time(s)
Russian Federation



(IMG:style_emoticons/default/metaler.gif)
Go to the top of the page
  Insert nick Quick quote
+Quote Post

Reply to this topicStart new topic
1 User(s) are reading this topic (1 Guests and 0 Anonymous Users)
0 Members:

 



- Lo-Fi Version Support form
Copyrights and abuse reports form
Time is now: 22nd July 2019 - 19:07:55