Welcome Guest ( Log In | Register )

> 

Здесь релизы с живыми прямыми ссылками на lossless

> Dead Man's Chest - Negative Mental Attitude [ep] (2014), Thrash Metal/Hardcore
post Apr 3 2015, 09:19:53
Post #1

Join my religion, or die
**************
Group: Металариец
Posts: 10,929
Releases: 1635
From: Питера
On Forums: 11 years 6 months
Thanks: 21574 time(s)
Russian Federation


(IMG:https://metalarea.org/images/audiocovers/2015_Apr/acov_tid242749_thumb.jpg)

*Artist: Dead Man's Chest
*Album: Negative Mental Attitude [ep]
*Year: 2014
*Genre: Thrash Metal/Hardcore
*Country: United Kingdom (IMG:https://metalarea.org/forum/style_images/flags/United%20Kingdom.png)
*Format: mp3@CBR320kbps
*Size: 66MB

Tracklist:
01. Hateline 06:05
02. Kiss the Ground 05:50
03. Weight of Disrespect 05:33
04. Left Alone 05:10
05. Bringing It Back 04:42
******************************
Total playing time: 27:20

(IMG:https://metalarea.org/images/youtube.png)

Technical info
(IMG:https://metalarea.org/images/spectrogram/2015_Apr/92556226e10183d65223d96da6420a5e.png)
Input File: 02 Kiss the Ground.mp3
Channels : 2
Sample Rate : 44100
Precision : 16-bit
Duration : 00:05:50.49 = 15456477 samples = 26286.5 CDDA sectors
File Size : 14.7M
Bit Rate : 335k
Sample Encoding: MPEG audio (layer I, II or III)
Comments :
Title=Kiss the Ground
Artist=Dead Man'S Chest
Album=Negative Mental Attitude
Tracknumber=2
Year=2014
Genre=Thrash Metal / Hardcore



Register


Go to the top of the page
  Insert nick Quick quote
+Quote Post
 
Start new topic
Replies (1 - 2)
post Apr 8 2021, 05:26:04
Post #2

Два Литра
**
Group: Завсегдатай
Posts: 167
Releases: 0
From: Russian Federation
On Forums: 14 years 7 months
Thanks: 3 time(s)
Russian Federation


Thank you very much, but unfortunately the link is no longer available (IMG:style_emoticons/default/6.gif)
Can anyone help?
Go to the top of the page
  Insert nick Quick quote
+Quote Post
post Apr 13 2021, 14:25:12
Post #3

Group Icon
Group: S-moderation team
Posts: 20,347
Releases: 1441
From: Zagreb
On Forums: 10 years 1 month
Thanks: 93296 time(s)
Croatia


Register

Register


Thanks:
Go to the top of the page
  Insert nick Quick quote
+Quote Post

Reply to this topicStart new topic
1 User(s) are reading this topic (1 Guests and 0 Anonymous Users)
0 Members:

 



- Lo-Fi Version Support form
Copyrights and abuse reports form
Time is now: 19th April 2021 - 16:04:10