Welcome Guest ( Log In | Register )

> Taphophilia - Sinistres Emanations [demo] (2010), Black Metal
post Apr 4 2015, 11:33:32
Post #1

Литр
*
Group: Подсевший
Posts: 51
Releases: 11
On Forums: 6 years 8 months
Thanks: 264 time(s)
Unknown


(IMG:https://metalarea.org/images/audiocovers/2015_Apr/acov_tid242832_thumb.jpg)

*Artist: Taphophilia
*Album: Sinistres Emanations [demo]
*Year: 2010
*Genre: Black Metal
*Country: France (IMG:https://metalarea.org/forum/style_images/flags/France.png)
*Format: mp3@CBR320kbps
*Size: 60MB

Tracklist:
1. Monument des cendres
2. Ode au vin
3. Sinistre émanation
4. Sous un ciel mort
******************************
Total playing time: 28:06

Technical info
(IMG:https://metalarea.org/images/spectrogram/2015_Apr/168729b3ec3ad8a8ec8ed7a14e7af1ae.png)
Input File: 02 - Ode au vin.mp3
Channels : 2
Sample Rate : 44100
Precision : 16-bit
Duration : 00:06:15.15 = 16543983 samples = 28136 CDDA sectors
File Size : 15.0M
Bit Rate : 320k
Sample Encoding: MPEG audio (layer I, II or III)
Comments :
Title=Ode au vin
Artist=Taphophilia
Album=Sinistres Emanations
Tracknumber=2
Year=2010
Genre=Raw Black Metal



Register


Go to the top of the page
  Insert nick Quick quote
+Quote Post
 
Start new topic
Replies (1 - 2)
post Jun 4 2015, 10:55:38
Post #2

Маньяк
**********
Group: Металариец
Posts: 1,414
Releases: 0
From: Рівне
On Forums: 9 years 3 months
Thanks: 126 time(s)
Ukraine


Go to the top of the page
  Insert nick Quick quote
+Quote Post
post Sep 13 2017, 22:15:12
Post #3

Маньяк
**********
Group: Металариец
Posts: 1,449
Releases: 0
From: MoscoW
On Forums: 11 years 6 months
Thanks: 1083 time(s)
Russian Federation


Перезалейте, пожалуйста!!!
Re-up plizzz...
(IMG:style_emoticons/default/pray.gif) (IMG:style_emoticons/default/pray.gif) (IMG:style_emoticons/default/pray.gif)
Go to the top of the page
  Insert nick Quick quote
+Quote Post

Reply to this topicStart new topic
1 User(s) are reading this topic (1 Guests and 0 Anonymous Users)
0 Members:

 



- Lo-Fi Version Support form
Copyrights and abuse reports form
Time is now: 20th June 2018 - 17:57:32