Welcome Guest ( Log In | Register )

> Nattesorg - A Tree Is Known By Its Fruit (2011), Unblack Metal
post Apr 4 2015, 11:39:44
Post #1

Serial Uploader
Group Icon
Group: V.I.P
Posts: 37,124
Releases: 35308
From: Lithuania
On Forums: 11 years 11 months
Thanks: 419360 time(s)
Lithuania


(IMG:https://metalarea.org/images/audiocovers/2015_Apr/acov_tid242834_thumb.jpg)

*Artist: Nattesorg
*Album: A Tree Is Known By Its Fruit
*Year: 2011
*Genre: Unblack Metal
*Country: Norway (IMG:https://metalarea.org/forum/style_images/flags/Norway.png)
*Format: mp3@CBR320kbps
*Size: 85MB

Tracklist:
01. The Light Of The Body 03:25
02. Blessings And Woes 04:12
03. House Built On A Rock 03:10
04. Gadarene Demonaic Healed 03:08
05. A Tree Is Known By Its Fruit 04:19
06. Light Under A Vessel 03:27
07. Love For Enemies 03:34
08. Good Samaritan 03:48
09. Judging Others 04:05
10. Heavenly Worship 03:01
******************************
Total playing time: 36:09

(IMG:https://metalarea.org/images/myspace.png)



(IMG:https://metalarea.org/images/youtube.png)

Technical info
(IMG:https://metalarea.org/images/spectrogram/2015_Apr/5e4aea4b45c648c2ec8cfb69f10a092e.png)
Input File: 02. Blessings And Woes.mp3
Channels : 2
Sample Rate : 44100
Precision : 16-bit
Duration : 00:04:12.24 = 11123564 samples = 18917.6 CDDA sectors
File Size : 10.4M
Bit Rate : 330k
Sample Encoding: MPEG audio (layer I, II or III)
Comments :
Title=Blessings And Woes
Artist=Nattesorg
Album=A Tree Is Known By Its Fruit
Tracknumber=2
Year=2014



Register


Go to the top of the page
  Insert nick Quick quote
+Quote Post
 
Start new topic
Replies (1 - 3)
post Apr 4 2015, 13:05:34
Post #2

.....
**************
Group: Металариец
Posts: 2,791
Releases: 112
On Forums: 10 years 10 months
Thanks: 3992 time(s)
Unknown


Nattesorg & Vinterfrost


Thanks:
(1) DarkHorde,
Go to the top of the page
  Insert nick Quick quote
+Quote Post
post Apr 5 2015, 14:50:49
Post #3

Шесть Литров
******
Group: Металариец
Posts: 528
Releases: 0
From: Санкт-Петербург
On Forums: 12 years 7 months
Thanks: 140 time(s)
Russian Federation


Unnorway


Go to the top of the page
  Insert nick Quick quote
+Quote Post
post Apr 10 2015, 11:27:29
Post #4

Stultus Anethum Siccum.
******
Group: Металариец
Posts: 642
Releases: 0
On Forums: 11 years 4 months
Thanks: 76 time(s)
Unknown


Сначала прочитал как Nublack metal.
Go to the top of the page
  Insert nick Quick quote
+Quote Post

Reply to this topicStart new topic
2 User(s) are reading this topic (2 Guests and 0 Anonymous Users)
0 Members:

 



- Lo-Fi Version Support form
Copyrights and abuse reports form
Time is now: 31st May 2020 - 02:27:55