Welcome Guest ( Log In | Register )

> Sacred Blood - Argonautica (2015), Epic Heavy/Power Metal (D5)
post Apr 9 2015, 17:08:06
Post #1

Serial Uploader
Group Icon
Group: V.I.P
Posts: 37,112
Releases: 35296
From: Lithuania
On Forums: 11 years 9 months
Thanks: 418060 time(s)
Lithuania


(IMG:http://metalarea.org/images/audiocovers/2015_Apr/acov_tid243174_thumb.jpg)

*Artist: Sacred Blood
*Album: Argonautica
*Year: 2015
*Genre: Epic Heavy/Power Metal
*Country: Greece (IMG:http://metalarea.org/forum/style_images/flags/Greece.png)
*Format: mp3@CBR320kbps
*Size: 109MB

Tracklist:
01. Legends Of The Sea (The Epic Of Apollonius (Argonautica))01:42
02. Hellenic Steel 04:08
03. Hail The Heroes 04:17
04. Legacy Of The Lyre 05:33
05. To Lands No Man Hath Seen 04:24
06. Call Of Blood 05:20
07. O'er The Tomb Of Atlantis (Beyond The Pillars Of Heracles) 02:59
08. Friend Or Foe 04:31
09. Enchantress Of The East 04:21
10. The Golden Fleece [Part 1] 03:46
11. The Golden Fleece [Part 2] 06:05
******************************
Total playing time: 47:06



Technical info
(IMG:http://metalarea.org/images/spectrogram/2015_Apr/f188755d7d876ece131a95ebb5864f20.png)
Input File: 06. Sacred Blood - Call Of Blood.mp3
Channels : 2
Sample Rate : 44100
Precision : 16-bit
Duration : 00:05:19.62 = 14095022 samples = 23971.1 CDDA sectors
File Size : 12.9M
Bit Rate : 322k
Sample Encoding: MPEG audio (layer I, II or III)
Comments :
Title=Call Of Blood
Artist=Sacred Blood
Album=Argonautica
Tracknumber=6/11
Year=2015



Register


Go to the top of the page
  Insert nick Quick quote
+Quote Post
 
Start new topic
Replies (1 - 4)
post Apr 10 2015, 05:49:12
Post #2

Dark Ambient Shoujo
**********
Group: Металариец
Posts: 1,245
Releases: 2
On Forums: 11 years 2 months
Thanks: 684 time(s)
Russian Federation




Ну превью пристойное по крайней мере.
Go to the top of the page
  Insert nick Quick quote
+Quote Post
post Apr 10 2015, 06:05:44
Post #3

Наливай!
**************
Group: Металариец
Posts: 5,620
Releases: 27
From: Москва-Бибирево
On Forums: 12 years 2 weeks
Thanks: 2795 time(s)
Russian Federation


На дебютнике они не плохо выдали, на следующем уже было печальнее. Этот вообще боюсь качать (IMG:style_emoticons/default/crazy.gif)
Go to the top of the page
  Insert nick Quick quote
+Quote Post
post Apr 11 2015, 16:34:37
Post #4

Маньяк
**********
Group: Металариец
Posts: 1,228
Releases: 101
From: 56°24′00″ с. ш. 61°56′00″ в. д.
On Forums: 13 years 3 months
Thanks: 2211 time(s)
Russian Federation


Хороший альбом, основательный, без лишней игры.
Go to the top of the page
  Insert nick Quick quote
+Quote Post
post Apr 28 2015, 08:33:12
Post #5

redbird
**
Group: Завсегдатай
Posts: 193
Releases: 4
From: Санкт-Петербург
On Forums: 10 years 5 months
Thanks: 152 time(s)
Russian Federation


- Где тут поле для боя?
- Да здесь же, вот только бой уже закончился.
- Да не, я не по бою. Я позагорать.
(IMG:style_emoticons/default/25.gif)
Расстилает простыню, берёт пивко, снимает футболку с Гамма Рей, ложиться...
У этих греков, наверное, борода не колется, раз их материал настолько мягкий. Ярость, ярость где? Где жажда лабать как греческие боги? Всё настолько прявильно и тихо, что как будто это зачуханный ботан для своей эпик-пати намутил. Вокалисту вообще большой привет, сначала посопел бы дома на диване, а потом пришёл записываться. А то всю запись в сон клонит.
Так и живут. Яичницы всем с оливками.


Thanks:
Go to the top of the page
  Insert nick Quick quote
+Quote Post

Reply to this topicStart new topic
2 User(s) are reading this topic (2 Guests and 0 Anonymous Users)
0 Members:

 



- Lo-Fi Version Support form
Copyrights and abuse reports form
Time is now: 31st March 2020 - 20:54:18