Welcome Guest ( Log In | Register )

> Mortuary - Death Won't Leave The Throne [ep] (2012), Death/Thrash Metal
post Apr 9 2015, 20:01:52
Post #1

Подвал
**************
Group: Металариец
Posts: 13,835
Releases: 7830
From: Far East (Khabarovsk)
On Forums: 10 years 9 months
Thanks: 76134 time(s)
Russian Federation


(IMG:http://metalarea.org/images/audiocovers/2015_Apr/acov_tid243182_thumb.jpg)

*Artist: Mortuary
*Album: Death Won't Leave The Throne [ep]
*Year: 2012
*Genre: Death/Thrash Metal
*Country: Mexico (IMG:http://metalarea.org/forum/style_images/flags/Mexico.png)
*Format: mp3@CBR320kbps
*Size: 22MB

Tracklist:
1. Death Won't Leave The Throne 03:37
2. Evil Control 03:09
3. La Muerte El Trono No Dejara 03:31
******************************
Total playing time: 10:17

(IMG:http://metalarea.org/images/myspace.png)

Technical info
(IMG:http://metalarea.org/images/spectrogram/2015_Apr/d59cc62cb83530d3477e16727ff88269.png)
Input File: 02-Evil Control.mp3
Channels : 2
Sample Rate : 44100
Precision : 16-bit
Duration : 00:03:09.84 = 8371724 samples = 14237.6 CDDA sectors
File Size : 7.59M
Bit Rate : 320k
Sample Encoding: MPEG audio (layer I, II or III)
Comments :
Title=Evil Control
Artist=Mortuary
Album=Death Won't Leave The Throne (EP)
Tracknumber=02
Year=2012
Genre=Death Metal



Register


Go to the top of the page
  Insert nick Quick quote
+Quote Post
 
Start new topic
Replies (1 - 1)
post Nov 8 2019, 20:12:00
Post #2


Group Icon
Group: S-moderation team
Posts: 12,596
Releases: 1439
From: Zagreb
On Forums: 8 years 8 months
Thanks: 54635 time(s)
Croatia


Register


Thanks:
(2) atavist, wgs73,
Go to the top of the page
  Insert nick Quick quote
+Quote Post

Reply to this topicStart new topic
2 User(s) are reading this topic (2 Guests and 0 Anonymous Users)
0 Members:

 



- Lo-Fi Version Support form
Copyrights and abuse reports form
Time is now: 18th November 2019 - 04:39:26