Welcome Guest ( Log In | Register )

> Nekkromaniac - Nekkrofukk [ep] (2015), Thrash/Black Metal
post Apr 13 2015, 10:57:16
Post #1

Serial Uploader
Group Icon
Group: V.I.P
Posts: 33,389
Releases: 31659
From: Lithuania
On Forums: 10 years 6 months
Thanks: 361702 time(s)
Lithuania


(IMG:https://metalarea.org/images/audiocovers/2015_Apr/acov_tid243349_thumb.jpg)

*Artist: Nekkromaniac
*Album: Nekkrofukk [ep]
*Year: 2015
*Genre: Thrash/Black Metal
*Country: Germany (IMG:https://metalarea.org/forum/style_images/flags/Germany.png)
*Format: mp3@CBR320kbps
*Size: 52MB

Tracklist:
01. Blasphemous Flags 04:44
02. Total Antichrist 05:37
03. Mark Of The Devil 03:47
04. Nekkromaniac 08:15
******************************
Total playing time: 22:23




Technical info
(IMG:https://metalarea.org/images/spectrogram/2015_Apr/5aa6834a4489b1a1bcb67592cdfebbdc.png)
Input File: 02. Total Antichrist.mp3
Channels : 2
Sample Rate : 44100
Precision : 16-bit
Duration : 00:05:37.09 = 14865625 samples = 25281.7 CDDA sectors
File Size : 13.6M
Bit Rate : 323k
Sample Encoding: MPEG audio (layer I, II or III)
Comments :
Title=02 Total Antichrist
Artist=Nekkromaniac
Album=Nekkrofukk
Tracknumber=2
Year=2015



Register


Go to the top of the page
  Insert nick Quick quote
+Quote Post
 
Start new topic
Replies (1 - 2)
post Nov 16 2017, 01:30:24
Post #2

Маньяк
**********
Group: Металариец
Posts: 1,466
Releases: 0
On Forums: 2 years 5 months
Thanks: 72 time(s)
United Kingdom


Any chance to re-up
Go to the top of the page
  Insert nick Quick quote
+Quote Post
post Nov 16 2017, 01:44:44
Post #3

Правь статус, ####!111
**************
Group: Металариец
Posts: 2,086
Releases: 0
On Forums: 3 years 7 months
Thanks: 2029 time(s)
Russian Federation


From the web, 320
Register
Go to the top of the page
  Insert nick Quick quote
+Quote Post

Reply to this topicStart new topic
1 User(s) are reading this topic (1 Guests and 0 Anonymous Users)
0 Members:

 



- Lo-Fi Version Support form
Copyrights and abuse reports form
Time is now: 12th December 2018 - 03:34:04