Welcome Guest ( Log In | Register )

> Antropomorphia - Necromantic Love Songs [best of/compilation] (2011), Death Metal (D5)
post Apr 15 2015, 10:42:20
Post #1

Serial Uploader
Group Icon
Group: V.I.P
Posts: 33,385
Releases: 31651
From: Lithuania
On Forums: 10 years 6 months
Thanks: 361624 time(s)
Lithuania


(IMG:https://metalarea.org/images/audiocovers/2015_Apr/acov_tid243484_thumb.jpg)

*Artist: Antropomorphia
*Album: Necromantic Love Songs [best of/compilation]
*Year: 2011
*Genre: Death Metal
*Country: Netherlands (IMG:https://metalarea.org/forum/style_images/flags/Netherlands.png)
*Format: mp3@CBR320kbps
*Size: 112MB

Tracklist:
01. Crack The Casket 04:56
02. The Carnal Pit 04:29
03. Birth Through Dead 04:10
04. Chunks Of Meat 04:39
05. Rotted Flesh 05:08
06. Outro 01:08
07. Intro 01:11
08. Bowel Mutilation 03:03
09. Splattered Remains 08:10
10. Rotted Flesh 05:00
11. The Carnal Pit 05:12
******************************
Total playing time: 47:06

(IMG:https://metalarea.org/images/myspace.png)



(IMG:https://metalarea.org/images/youtube.png)

Technical info
(IMG:https://metalarea.org/images/spectrogram/2015_Apr/afe60be265f0e362d34441fdd5b36971.png)
Input File: 02. The Carnal Pit.mp3
Channels : 2
Sample Rate : 48000
Precision : 16-bit
Duration : 00:04:49.00 = 13872000 samples ~ 21675 CDDA sectors
File Size : 11.6M
Bit Rate : 320k
Sample Encoding: MPEG audio (layer I, II or III)
Comments :
Title=The Carnal Pit
Artist=Antropomorphia
Album=Necromantic Love Songs (Compilation)
Tracknumber=2
Year=2011-13-20
Genre=Death Metal



Register


Go to the top of the page
  Insert nick Quick quote
+Quote Post
 
Start new topic
Replies (1 - 2)
post Mar 7 2017, 04:20:25
Post #2

Правь статус, ####!111
**************
Group: Металариец
Posts: 6,132
Releases: 164
From: URUGUAY
On Forums: 12 years 2 months
Thanks: 15123 time(s)
Uruguay


[CD Compilation] (2016)
mp3@CBR 320 kbps
Register


Thanks:
Go to the top of the page
  Insert nick Quick quote
+Quote Post
post Dec 6 2018, 15:42:32
Post #3

Два Литра
**
Group: Завсегдатай
Posts: 136
Releases: 2
From: Екатеринбург
On Forums: 9 years 1 week
Thanks: 80 time(s)
Russian Federation


нужен лось плиз
Go to the top of the page
  Insert nick Quick quote
+Quote Post

Reply to this topicStart new topic
2 User(s) are reading this topic (2 Guests and 0 Anonymous Users)
0 Members:

 



- Lo-Fi Version Support form
Copyrights and abuse reports form
Time is now: 10th December 2018 - 13:55:19