Welcome Guest ( Log In | Register )

> Maïak - A Very Pleasant Way To Die (2015), Post-Metal/Post-Rock
post Apr 16 2015, 07:21:18
Post #1

Аннигилятор пивА
Group Icon
Group: V.I.P
Posts: 52,360
Releases: 16555
From: Koenigsberg - TILZIT
On Forums: 13 years 6 months
Thanks: 363292 time(s)
Russian Federation


(IMG:http://metalarea.org/images/audiocovers/2015_Apr/acov_tid243544_thumb.jpg)

*Artist: Maïak
*Album: A Very Pleasant Way To Die
*Year: 2015
*Genre: Post-Metal/Post-Rock
*Country: Switzerland (IMG:http://metalarea.org/forum/style_images/flags/Switzerland.png)
*Format: mp3@CBR320kbps
*Size: 96MB

Tracklist:
01. Nutributter Green Is People 09:43
02. I Am Not A Man, I Am A Free Number 11:12
03. A Fond Poster Girl For Tatmadaw 06:17
04. Sometimes You've Got To Take The Hardest Line 08:44
05. We All Live In A Yellow Kursk 04:41
******************************
Total playing time: 40:37



Extended info
instrumental
(IMG:style_emoticons/default/20.gif)


Technical info
(IMG:http://metalarea.org/images/spectrogram/2015_Apr/50ec42cc918942036ad1c0c097b987ba.png)
Input File: 01. Nutributter Green Is People.mp3
Channels : 2
Sample Rate : 44100
Precision : 16-bit
Duration : 00:09:43.66 = 25739362 samples = 43774.4 CDDA sectors
File Size : 23.3M
Bit Rate : 320k
Sample Encoding: MPEG audio (layer I, II or III)
Comments :
Title=Nutributter Green Is People
Artist=MaГЇak
Album=A Very Pleasant Way To Die
Tracknumber=01/05
Year=2015



Register


Go to the top of the page
  Insert nick Quick quote
+Quote Post
 
Start new topic
Replies (1 - 1)
post Dec 2 2019, 21:18:06
Post #2


**********
Group: Металариец
Posts: 1,274
Releases: 189
From: Подмосковье
On Forums: 10 years 4 months
Thanks: 3272 time(s)
Russian Federation


320
Register


Новый альбом вышел недавно -
Go to the top of the page
  Insert nick Quick quote
+Quote Post

Reply to this topicStart new topic
1 User(s) are reading this topic (1 Guests and 0 Anonymous Users)
0 Members:

 



- Lo-Fi Version Support form
Copyrights and abuse reports form
Time is now: 12th December 2019 - 15:27:21