Welcome Guest ( Log In | Register )

> Mirror Morionis - Last Winter Tolls (2015), Atmospheric Doom Metal
post Apr 16 2015, 09:02:01
Post #1

Шесть Литров
******
Group: Металариец
Posts: 655
Releases: 125
On Forums: 12 years 8 months
Thanks: 1652 time(s)
Chile


(IMG:https://metalarea.org/images/audiocovers/2015_Apr/acov_tid243551_thumb.jpg)

*Artist: Mirror Morionis
*Album: Last Winter Tolls
*Year: 2015
*Genre: Atmospheric Doom Metal
*Country: Russian Federation (IMG:https://metalarea.org/forum/style_images/flags/Russian%20Federation.png)
*Format: mp3@CBR320kbps
*Size: 151MB

Tracklist:
1. As Winter Arrived 17:14
2. Nine Coldest Days 16:10
3. Sunless Within 12:48
4. I'm not. You are the One 14:45
5. Forest Of Lovelorn Hearts 11:46
6. Offtime 04:56
******************************
Total playing time: 1:17:39



Technical info
(IMG:https://metalarea.org/images/spectrogram/2015_Apr/343e1eb10b85b9c6b3e4a79f7176efe0.png)
Input File: 5 - Forest Of Lovelorn Hearts.mp3
Channels : 2
Sample Rate : 44100
Precision : 16-bit
Duration : 00:11:47.58 = 31204322 samples = 53068.6 CDDA sectors
File Size : 28.3M
Bit Rate : 320k
Sample Encoding: MPEG audio (layer I, II or III)
Comments :
Title=Forest Of Lovelorn Hearts
Artist=Mirror Morionis
Tracknumber=5



Register


Go to the top of the page
  Insert nick Quick quote
+Quote Post
 
Start new topic
Replies (1 - 7)
post Apr 16 2015, 15:13:23
Post #2

Правь статус, ####!111
**************
Group: Металариец
Posts: 46,493
Releases: 718
On Forums: 11 years 4 days
Thanks: 39033 time(s)
Russian Federation


Надо заценить, должно быть интересно.
Go to the top of the page
  Insert nick Quick quote
+Quote Post
post Apr 16 2015, 17:44:13
Post #3

Маньяк
**********
Group: Металариец
Posts: 1,228
Releases: 101
From: 56°24′00″ с. ш. 61°56′00″ в. д.
On Forums: 13 years 5 months
Thanks: 2215 time(s)
Russian Federation


По предыдущему альбому почти все отзывы положительные. Что же по текущему?

Отмечу:
- чрезмерная затянутость композиций. Пока слушал первый трек, показалась прошла вечность;
- плохой звук. Для атмосферик дум это критично. Хотя, учитывая что это перекод, то в оригинале наверное все хорошо;
- некоторая перегруженность композиций, что вкупе с остальным выше не совсем хорошо;
- в музыкальном построении ничего интересного не нашел, тут дело вкуса.



Thanks:
Go to the top of the page
  Insert nick Quick quote
+Quote Post
post Apr 16 2015, 20:40:09
Post #4

Правь статус, ####!111
**************
Group: Металариец
Posts: 46,493
Releases: 718
On Forums: 11 years 4 days
Thanks: 39033 time(s)
Russian Federation


Не знаю, мне очень понравилось. Это именно то, чего я и жду от жанра. Традиционно, медленно, монолитно, красиво. Релиз погружает. Слоновья продолжительность позволяет полностью окунуться в окиян печали и грусти, а насчёт звука не сказал бы что он плохой. Перегруженности тоже не заметил, всё довольно минималистично. Альбом и не задаётся целью совершить революцию - тут дело в приверженности канонам красивой музыки. В этом случае они полностью соблюдены, так что могу смело рекомендовать сей релиз всем любителям и фанатам направления.
Go to the top of the page
  Insert nick Quick quote
+Quote Post
post Apr 16 2015, 21:21:04
Post #5

ME[ta]LLOMAN
**************
Group: Металариец
Posts: 4,966
Releases: 3
From: Avdeyevka
On Forums: 14 years 1 month
Thanks: 1946 time(s)
Honduras


душевно, например


Go to the top of the page
  Insert nick Quick quote
+Quote Post
post Apr 16 2015, 22:18:02
Post #6

ЗаDOOMчивый
***********
Group: Металариец
Posts: 1,709
Releases: 27
From: Cradlовская обл., г. Нижний Gorgoroth, р-н Doom-о-Deathово
On Forums: 11 years 6 months
Thanks: 1220 time(s)
Russian Federation


Предыдущий, вроде, был ничего. Завтра попробуем и этот.
Go to the top of the page
  Insert nick Quick quote
+Quote Post
post Jan 14 2019, 09:00:38
Post #7

Шесть Литров
******
Group: Металариец
Posts: 695
Releases: 10
On Forums: 11 years 5 months
Thanks: 162 time(s)
Germany


please, re-upload.

please, re-upload.
Go to the top of the page
  Insert nick Quick quote
+Quote Post
post Jan 14 2019, 10:12:03
Post #8

Шесть Литров
******
Group: Металариец
Posts: 606
Releases: 5
From: Ивантеевка, Московская область
On Forums: 12 years 5 months
Thanks: 219 time(s)
Russian Federation


Register


Thanks:
Go to the top of the page
  Insert nick Quick quote
+Quote Post

Reply to this topicStart new topic
2 User(s) are reading this topic (2 Guests and 0 Anonymous Users)
0 Members:

 



- Lo-Fi Version Support form
Copyrights and abuse reports form
Time is now: 5th June 2020 - 21:05:08