Welcome Guest ( Log In | Register )

> 

Здесь релизы с живыми прямыми ссылками на lossless

> Parricide - Sometimes It's Better To Be Blind And Deaf (2015), Brutal Death Metal/Grindcore (D)
post Apr 24 2015, 21:28:39
Post #1

Serial Uploader
Group Icon
Group: V.I.P
Posts: 36,984
Releases: 35167
From: Lithuania
On Forums: 11 years 8 months
Thanks: 414301 time(s)
Lithuania


(IMG:http://metalarea.org/images/audiocovers/2015_Apr/acov_tid244092_thumb.jpg)

*Artist: Parricide
*Album: Sometimes It's Better To Be Blind And Deaf
*Year: 2015
*Genre: Brutal Death Metal/Grindcore
*Country: Poland (IMG:http://metalarea.org/forum/style_images/flags/Poland.png)
*Format: mp3@CBR320kbps
*Size: 64MB

Tracklist:
1. Old 01:32
2. We'll Surely Meet 02:28
3. Just Poland 02:14
4. Smuggler Jack 02:30
5. I Don't Change 01:51
6. Supermarket and Me 02:34
7. My Property 01:26
8. Real Patriots 01:21
9. Stunners 02:07
10. Dillemas of a Young Warrior 01:44
11. I Hate Tattoos 01:59
12. Talented 01:41
13. I Am the True Warrior (Bonus track) 02:26
******************************
Total playing time: 25:53



Technical info
(IMG:http://metalarea.org/images/spectrogram/2015_Apr/05d69e70427bf0b24968a821e863885c.png)
Input File: 04_Parricide_-_Smuggler_Jack.mp3
Channels : 2
Sample Rate : 44100
Precision : 16-bit
Duration : 00:02:29.58 = 6596478 samples = 11218.5 CDDA sectors
File Size : 5.99M
Bit Rate : 320k
Sample Encoding: MPEG audio (layer I, II or III)
Comments :
Title=Smuggler Jack
Artist=Parricide
Album=Sometimes It's Better To Be Blind And Deaf
Tracknumber=4
Year=2015
Genre=Grindcore



Register


Go to the top of the page
  Insert nick Quick quote
+Quote Post
 
Start new topic
Replies (1 - 3)
post Apr 25 2015, 23:55:23
Post #2

Going home. Flying high.
**************
Group: Металариец
Posts: 12,966
Releases: 0
From: The Land of Shadows
On Forums: 13 years 6 months
Thanks: 22830 time(s)
Russian Federation


Сделал зеркальце для одного старого знакомого, большого любителя сабжа... делюсь, вот, со всеми:
Register


Go to the top of the page
  Insert nick Quick quote
+Quote Post
post Feb 11 2020, 18:14:49
Post #3

Правь статус, ####!111
**************
Group: Металариец
Posts: 7,405
Releases: 0
From: Москва
On Forums: 10 years 6 months
Thanks: 13687 time(s)
Russian Federation


Перезалейте плз
Go to the top of the page
  Insert nick Quick quote
+Quote Post
post Feb 14 2020, 09:39:36
Post #4


Group Icon
Group: S-moderation team
Posts: 14,114
Releases: 1439
From: Zagreb
On Forums: 8 years 11 months
Thanks: 61668 time(s)
Croatia


Register



Thanks:
(1) Olethros,
Go to the top of the page
  Insert nick Quick quote
+Quote Post

Reply to this topicStart new topic
2 User(s) are reading this topic (2 Guests and 0 Anonymous Users)
0 Members:

 



- Lo-Fi Version Support form
Copyrights and abuse reports form
Time is now: 19th February 2020 - 23:09:16