Welcome Guest ( Log In | Register )

> Redman Of Fire - Origén (2015), Avant-Garde/Progressive Metal
post Apr 27 2015, 19:39:22
Post #1

Аннигилятор пивА
Group Icon
Group: V.I.P
Posts: 46,650
Releases: 14001
From: Koenigsberg - TILZIT
On Forums: 11 years 10 months
Thanks: 309885 time(s)
Russian Federation


(IMG:https://metalarea.org/images/audiocovers/2015_Apr/acov_tid244244_thumb.jpg)

*Artist: Redman Of Fire
*Album: Origén
*Year: 2015
*Genre: Avant-Garde/Progressive Metal
*Country: Spain (IMG:https://metalarea.org/forum/style_images/flags/Spain.png)
*Format: mp3@CBR320kbps
*Size: 126MB

Tracklist:
01. El Cant De La Sybila
02. Limbo
03. Coward God
04. Dark Kind
05. Hollow
06. A Bridge to Hell
07. Side Effect
08. Non Smoking Morning
09. Suffering Hapyness
******************************
Total playing time: 51:36



Extended info


Technical info
(IMG:https://metalarea.org/images/spectrogram/2015_Apr/28c078951aedfe21ce891888ae85f07e.png)
Input File: 08. Non Smoking Morning.mp3
Channels : 2
Sample Rate : 44100
Precision : 16-bit
Duration : 00:01:35.23 = 4199555 samples = 7142.1 CDDA sectors
File Size : 3.94M
Bit Rate : 331k
Sample Encoding: MPEG audio (layer I, II or III)
Comments :
Title=Non Smoking Morning
Artist=Redman Of Fire
Album=OrigГ©n
Tracknumber=8/9
Year=2015



Register


Thanks:
Вернуться к началу страницы
  Insert nick Quick quote
+Цитировать сообщение
 
Создать новую тему
Replies (1 - 5)
post Apr 28 2015, 11:53:03
Post #2

Аннигилятор пивА
Group Icon
Group: V.I.P
Posts: 46,650
Releases: 14001
From: Koenigsberg - TILZIT
On Forums: 11 years 10 months
Thanks: 309885 time(s)
Russian Federation


Весьма вкусно и медитативно, присутствуют всякие кислотные и ретро клавиши, ну и прочие разные психоделики... местами грибочками Lake Of Tears попахивает(например в последнем трэке так даже вокал схож).
Вернуться к началу страницы
  Insert nick Quick quote
+Цитировать сообщение
post Apr 28 2015, 11:55:11
Post #3

Ёлд ХеллоВяйне
Group Icon
Group: V.I.P
Posts: 25,210
Releases: 130
From: Питер
On Forums: 11 years 5 months
Thanks: 13871 time(s)
Russian Federation


Несъедобная мешанина.
Вернуться к началу страницы
  Insert nick Quick quote
+Цитировать сообщение
post Apr 30 2015, 09:28:33
Post #4

Schuldinerist
**************
Group: Металариец
Posts: 9,588
Releases: 33
From:
On Forums: 11 years 1 week
Thanks: 5713 time(s)
Russian Federation


Old Vyaine, ты на лэйков среагировал или вообще? (IMG:style_emoticons/default/smile3.gif)
Вернуться к началу страницы
  Insert nick Quick quote
+Цитировать сообщение
post Apr 30 2015, 13:58:59
Post #5

Ёлд ХеллоВяйне
Group Icon
Group: V.I.P
Posts: 25,210
Releases: 130
From: Питер
On Forums: 11 years 5 months
Thanks: 13871 time(s)
Russian Federation


Скорее вообще (IMG:style_emoticons/default/1488.gif)
Вернуться к началу страницы
  Insert nick Quick quote
+Цитировать сообщение
post Dec 7 2017, 14:44:51
Post #6

Два Литра
**
Group: Завсегдатай
Posts: 179
Releases: 0
From: Belarus
On Forums: 9 years 1 month
Thanks: 48 time(s)
Belarus


Огонек ��
Вернуться к началу страницы
  Insert nick Quick quote
+Цитировать сообщение

ОтветитьСоздать новую тему
2 User(s) are reading this topic (2 Guests and 0 Anonymous Users)
0 Members:

 



- Lo-Fi Version Support form
Copyrights and abuse reports form
Time is now: 19th April 2018 - 10:51:01